<?xml version="1.0" standalone="no"?>
<!DOCTYPE svg PUBLIC "-//W3C//DTD SVG 1.1//EN" "http://www.w3.org/Graphics/SVG/1.1/DTD/svg11.dtd" >
<svg xmlns="http://www.w3.org/2000/svg">
<metadata>
This is a custom SVG webfont generated by Font Squirrel.
Copyright   : Copyright c 2011 TypeTogether wwwtypetogethercom with Reserved Font Names Crete and Crete Round
Designer    : Veronika Burian
Foundry     : TypeTogether
Foundry URL : wwwtypetogethercomCrete
</metadata>
<defs>
<font id="CreteRoundItalic" horiz-adv-x="1024" >
<font-face units-per-em="2048" ascent="1638" descent="-410" />
<missing-glyph horiz-adv-x="409" />
<glyph unicode=" "  horiz-adv-x="409" />
<glyph unicode="&#x09;" horiz-adv-x="409" />
<glyph unicode="&#xa0;" horiz-adv-x="409" />
<glyph unicode="!" horiz-adv-x="518" d="M37 72q0 68 45 108.5t115 40.5q57 0 92 -31.5t35 -78.5q0 -68 -46 -109t-118 -41q-57 0 -90 32t-33 79zM160 352l76 692l55 314q4 31 39 31h155q20 0 25.5 -6.5t1.5 -24.5l-55 -318l-166 -690q-8 -31 -41 -31h-62q-20 0 -25 6.5t-3 26.5z" />
<glyph unicode="&#x22;" horiz-adv-x="765" d="M221 969l6 182q0 37 6 63l25 146q4 31 39 31h143q20 0 25.5 -6.5t1.5 -24.5l-25 -150q-8 -37 -16 -61l-59 -182q-10 -31 -43 -31h-70q-20 0 -26.5 6t-6.5 27zM532 969l7 182q0 37 6 63l24 146q4 31 39 31h144q20 0 25 -6.5t1 -24.5l-24 -150q-8 -37 -17 -61l-59 -182 q-10 -31 -43 -31h-70q-20 0 -26.5 6t-6.5 27z" />
<glyph unicode="#" horiz-adv-x="1153" d="M47 381v12q4 18 11.5 24.5t27.5 6.5h213l92 252h-213q-20 0 -25.5 6t-0.5 25v12q4 18 11 24.5t27 6.5h228l112 307q10 31 43 30h11q18 0 23 -6t-1 -24l-112 -307h270l108 307q10 31 43 30h11q18 0 23 -6t-1 -24l-108 -307h227q20 0 25.5 -6.5t1.5 -24.5v-12 q-4 -18 -11.5 -24.5t-27.5 -6.5h-242l-88 -252h238q20 0 25 -6t1 -25v-12q-4 -18 -11 -24.5t-28 -6.5h-252l-125 -354q-10 -31 -43 -31h-10q-18 0 -23 6t1 25l125 354h-273l-129 -354q-10 -31 -43 -31h-10q-18 0 -23.5 6t0.5 25l129 354h-200q-20 0 -25.5 6t-1.5 25z M375 424h274l88 252h-270z" />
<glyph unicode="$" horiz-adv-x="882" d="M0 45l37 229q4 18 11 24.5t28 6.5h110q20 0 25.5 -6t1.5 -25l-27 -116q31 -27 80 -35l96 330q-143 72 -200.5 130t-57.5 165q0 164 124 254t321 88l31 100q8 31 41 31h20q18 0 23.5 -6.5t1.5 -24.5l-31 -105q88 -6 180 -34q31 -10 27 -41l-35 -215q-4 -18 -11.5 -24.5 t-27.5 -6.5h-111q-20 0 -24 6t0 25l24 110q-37 18 -67 25l-86 -287q63 -35 91 -53.5t76 -58t68.5 -90t20.5 -115.5q0 -178 -134 -269.5t-321 -91.5l-39 -135q-8 -31 -41 -31h-20q-20 0 -24.5 6.5t-0.5 24.5l39 139q-100 6 -192 35q-31 10 -27 41zM315 805q0 -80 113 -131 l78 260q-78 4 -134.5 -31t-56.5 -98zM352 117q80 2 141.5 36.5t61.5 110.5q0 53 -28 85t-89 67z" />
<glyph unicode="%" horiz-adv-x="1705" d="M82 895q0 178 108.5 314.5t286.5 136.5q129 0 208 -77t79 -222q0 -176 -105.5 -319.5t-287.5 -143.5q-133 0 -211 83t-78 228zM258 889q0 -166 127 -166q76 0 124 57.5t63.5 125t15.5 141.5q0 78 -33 120.5t-92 42.5q-76 0 -125 -59t-64.5 -125.5t-15.5 -136.5zM315 -8 l869 1323q16 27 51 26h92q34 1 14 -26l-870 -1323q-16 -27 -51 -27h-90q-35 0 -15 27zM891 276q0 178 108.5 314.5t286.5 136.5q129 0 208 -77t79 -222q0 -176 -105.5 -319.5t-287.5 -143.5q-133 0 -211 83t-78 228zM1067 270q0 -166 127 -166q76 0 124 57.5t63.5 125 t15.5 141.5q0 78 -32 121t-91 43q-57 0 -100.5 -33t-65 -86t-31.5 -103.5t-10 -99.5z" />
<glyph unicode="&#x26;" horiz-adv-x="1708" d="M86 502q0 252 167 434t464 182q166 0 261 -73.5t95 -198.5q0 -66 -27.5 -121t-68.5 -90t-90 -58.5t-93 -32.5t-79 -9q70 -14 119 -44t86.5 -87.5t58 -102.5t55.5 -135q160 47 260.5 181t100.5 337q0 143 -72 293h-152q-20 -2 -25 4t-1 25l18 106q4 31 39 31h459 q20 0 25.5 -6.5t1.5 -24.5l-23 -108q-4 -18 -11.5 -24.5t-27.5 -4.5h-115q55 -152 56 -289q0 -244 -135.5 -427t-337.5 -245l108 -237q18 -41 38 -58.5t54.5 -17.5t71.5 14q29 12 45 -16l12 -27q14 -27 -10 -45q-94 -66 -209 -65q-82 0 -129 36.5t-84 116.5l-117 258 q-66 -8 -151 -8q-305 0 -471 141.5t-166 395.5zM326 520q0 -184 99 -290.5t300 -106.5q53 0 80 2q-33 76 -44 102.5t-38 83t-41 77t-37.5 51t-45 45t-48.5 20.5q-20 4 -25.5 11t-3.5 28l8 47q4 33 37 37q113 16 187.5 66t74.5 128q0 61 -40.5 94t-108.5 33q-92 0 -164 -41 t-111.5 -107.5t-59 -137t-19.5 -142.5z" />
<glyph unicode="'" horiz-adv-x="454" d="M221 969l6 182q0 37 6 63l25 146q4 31 39 31h143q20 0 25.5 -6.5t1.5 -24.5l-25 -150q-8 -37 -16 -61l-59 -182q-10 -31 -43 -31h-70q-20 0 -26.5 6t-6.5 27z" />
<glyph unicode="(" horiz-adv-x="688" d="M186 -274l4 870q0 29 11 63l276 838q10 31 43 31h228q20 0 25 -6t1 -25l-18 -117q-4 -18 -11.5 -24t-27.5 -4l-92 6l-238 -729l-10 -772l98 6q20 2 25.5 -4.5t1.5 -24.5l-17 -110q-4 -18 -11 -24.5t-28 -6.5h-227q-20 0 -26.5 6t-6.5 27z" />
<glyph unicode=")" horiz-adv-x="688" d="M-66 -276l19 116q4 18 11 24.5t28 4.5l92 -6l238 729l10 772l-99 -6q-20 -2 -25 4t-1 24l16 111q4 18 11.5 24.5t27.5 6.5h227q20 0 26.5 -6t6.5 -27l-4 -870q0 -29 -10 -64l-277 -837q-10 -31 -43 -31h-227q-20 0 -25.5 6t-1.5 25z" />
<glyph unicode="*" horiz-adv-x="995" d="M221 938q-10 33 17 47l233 145l-176 148q-25 20 -4 45l14 20q20 27 49 11l197 -105l74 248q8 31 41 31h22q20 0 26.5 -6t4.5 -27l-21 -246l252 105q29 12 41 -19l2 -8q14 -33 -14 -47l-236 -145l181 -150q25 -20 4 -45l-17 -18q-20 -27 -49 -11l-200 103l-72 -244 q-8 -31 -41 -31h-21q-20 0 -26 6.5t-4 26.5l16 242l-248 -105q-29 -12 -39 19z" />
<glyph unicode="+" horiz-adv-x="1085" d="M63 573l13 72q2 18 10.5 24.5t28.5 6.5h360l64 362q2 18 10 24.5t29 6.5h84q20 0 25 -6t1 -25l-63 -362h366q20 0 25.5 -6t1.5 -25l-12 -72q-2 -18 -10.5 -24t-28.5 -6h-367l-68 -393q-4 -18 -11 -24.5t-27 -6.5h-84q-20 0 -25.5 6t-1.5 25l68 393h-361q-20 0 -25.5 6 t-1.5 24z" />
<glyph unicode="," horiz-adv-x="598" d="M2 -258l117 219q-53 86 -53 141q0 66 45 110t120 44q61 0 98.5 -38t37.5 -93q0 -45 -21.5 -91t-38 -68t-67.5 -83l-156 -188q-20 -27 -49 -8l-19 10q-31 16 -14 45z" />
<glyph unicode="-" horiz-adv-x="577" d="M61 477l23 137q2 18 10 24.5t29 6.5h389q20 0 25.5 -6t1.5 -25l-25 -137q-2 -18 -10.5 -24.5t-28.5 -6.5h-387q-20 0 -25.5 6.5t-1.5 24.5z" />
<glyph unicode="." horiz-adv-x="571" d="M59 82q0 72 49.5 117t124.5 45q61 0 99.5 -35t38.5 -86q0 -72 -50 -117t-128 -45q-61 0 -97.5 35t-36.5 86z" />
<glyph unicode="/" horiz-adv-x="919" d="M-37 -178l907 1675q16 29 48 29h94q32 0 18 -29l-909 -1675q-16 -29 -47 -29h-92q-33 0 -19 29z" />
<glyph unicode="0" horiz-adv-x="1179" d="M39 426q0 274 164 467.5t459 193.5q193 0 318.5 -109.5t125.5 -326.5q0 -281 -166 -478.5t-463 -197.5q-209 0 -323.5 118t-114.5 333zM266 426q0 -131 59.5 -207t178.5 -76q106 0 183 47.5t116 124t56.5 156.5t17.5 164q0 281 -250 280q-104 0 -179 -45t-113 -122.5 t-53.5 -155.5t-15.5 -166z" />
<glyph unicode="1" horiz-adv-x="694" d="M-33 31l17 102q4 18 11 24.5t28 4.5h149l125 721l-162 -6q-20 -2 -25.5 4t-0.5 24l18 111q4 31 39 31h356q20 0 25.5 -6.5t1.5 -24.5l-150 -854h148q20 2 25.5 -4t0.5 -25l-18 -102q-2 -18 -10 -24.5t-29 -6.5h-522q-20 0 -25.5 6t-1.5 25z" />
<glyph unicode="2" horiz-adv-x="1077" d="M-14 31l14 86q4 31 37 45q109 45 212 99t217 132t183.5 172t69.5 189q0 161 -174 161q-186 0 -228 -180q-8 -31 -38 -30h-129q-18 0 -23.5 6t-3.5 26q27 172 147.5 261t305 89t283.5 -83.5t99 -225.5q0 -346 -602 -610h396l12 115q4 20 10 26t27 6h104q20 0 25.5 -6 t1.5 -24l-64 -363q-4 -31 -39 -31h-104q-20 0 -24.5 6.5t-0.5 24.5l19 78h-707q-20 0 -25 6t-1 25z" />
<glyph unicode="3" horiz-adv-x="989" d="M-45 10q0 16 4 53q4 31 37 31h127q14 0 19 -5t3 -19q-2 -10 -2 -29q0 -86 49.5 -123t151.5 -37q127 0 196.5 73t69.5 206q0 86 -52 134t-138 54q-68 6 -123 6q-20 0 -25.5 6.5t-1.5 26.5l17 100q4 31 39 31q100 0 137 6q100 10 164.5 75t64.5 165q0 72 -41 113t-125 41 q-180 0 -227 -183q-4 -18 -11 -24t-28 -6h-123q-18 0 -23 6t-3 24q31 174 155.5 263t298.5 89q170 0 262.5 -77.5t92.5 -204.5q0 -274 -318 -367q96 -12 164 -85.5t68 -188.5q0 -209 -142.5 -331t-369.5 -122q-176 0 -271.5 77t-95.5 222z" />
<glyph unicode="4" horiz-adv-x="1073" d="M-16 61l16 107q4 27 27 55l626 799q20 25 54 25h172q20 0 25 -6.5t1 -24.5l-143 -813h205q20 0 25 -6.5t1 -24.5l-16 -111q-4 -18 -11.5 -24t-27.5 -6h-207l-47 -273q-4 -31 -39 -30h-149q-20 0 -25.5 6t-1.5 24l47 273h-506q-20 0 -25 6t-1 24zM188 203h359l100 583z " />
<glyph unicode="5" horiz-adv-x="972" d="M-55 12q0 35 4 56q2 18 8 24t27 6h122q18 0 23.5 -6t3.5 -22q-2 -12 -2 -33q0 -156 182 -156q147 0 229.5 86t82.5 232q0 225 -193 225q-117 0 -225 -76q-27 -16 -57 -4l-29 12q-29 14 -21 45l179 615q8 31 40 31h599q20 0 25 -6.5t1 -24.5l-22 -135q-4 -18 -11.5 -24.5 t-27.5 -6.5h-484l-96 -305q104 55 229 55q141 0 230.5 -96t89.5 -254q0 -240 -142.5 -389.5t-400.5 -149.5q-172 0 -268 79t-96 222z" />
<glyph unicode="6" horiz-adv-x="1118" d="M76 426q0 160 37 313.5t112.5 292.5t212.5 225t316 86q143 0 229 -66.5t86 -201.5v-43q0 -33 -37 -33h-129q-16 0 -19 8.5t-3 30.5q0 68 -33 102t-113 34q-135 0 -245.5 -113t-165.5 -344q59 68 154 110.5t200 42.5q162 0 250 -100t88 -250q0 -252 -148.5 -398.5 t-396.5 -146.5q-193 0 -294 122t-101 329zM291 383q0 -240 215 -240q141 0 215 95.5t74 250.5q0 96 -56.5 152.5t-158.5 56.5q-139 0 -214 -83t-75 -232z" />
<glyph unicode="7" horiz-adv-x="944" d="M-6 -246l713 1096h-629q-20 0 -25.5 6t-1.5 25l23 135q4 31 39 31h837q20 0 25.5 -6.5t1.5 -24.5l-16 -107q-6 -33 -23 -57l-721 -1098q-14 -27 -49 -26h-158q-35 0 -16 26z" />
<glyph unicode="8" horiz-adv-x="1093" d="M35 272q0 143 89 246t247 187q-154 113 -154 272q0 168 131 267t328 99q180 0 266 -74.5t86 -187.5q0 -219 -293 -362q246 -154 246 -350q0 -190 -155.5 -292t-387.5 -102q-201 0 -302 82t-101 215zM258 317q0 -184 211 -184q119 0 197.5 48.5t78.5 146.5q0 25 -6 48 t-14 40.5t-26.5 38t-30 33t-39 32t-39.5 27.5t-45 29.5t-43 27.5q-53 -29 -89 -53.5t-76 -60t-59.5 -78.5t-19.5 -95zM451 1030q0 -63 34.5 -112.5t106.5 -104.5q100 51 158.5 107.5t58.5 136.5q0 61 -42 95t-112 34q-205 0 -204 -156z" />
<glyph unicode="9" horiz-adv-x="1118" d="M18 -23q0 29 2 43q2 33 35 33h131q18 0 19 -20v-23q0 -137 153 -137q145 0 254 114.5t160 356.5q-127 -164 -356 -164q-162 0 -253 101.5t-91 248.5q0 254 148.5 405.5t395.5 151.5q195 0 296.5 -126.5t101.5 -354.5q0 -133 -21.5 -258t-73 -242.5t-127 -204.5 t-190.5 -139.5t-258 -52.5q-150 0 -238 65.5t-88 202.5zM293 571q0 -100 50.5 -159.5t154.5 -59.5q154 0 227.5 91.5t73.5 242.5q0 104 -52.5 170t-164.5 66q-141 0 -215 -96.5t-74 -254.5z" />
<glyph unicode=":" horiz-adv-x="571" d="M61 82q0 72 49.5 117t125.5 45q61 0 99 -35t38 -86q0 -72 -50 -117t-128 -45q-61 0 -97.5 35t-36.5 86zM205 895q0 72 49 117t125 45q61 0 99 -35t38 -86q0 -72 -50 -117t-128 -45q-61 0 -97 35t-36 86z" />
<glyph unicode=";" horiz-adv-x="598" d="M2 -258l117 219q-53 86 -53 141q0 66 45 110t120 44q61 0 98.5 -38t37.5 -93q0 -45 -21.5 -91t-38 -68t-67.5 -83l-156 -188q-20 -27 -49 -8l-19 10q-31 16 -14 45zM217 895q0 72 49.5 117t124.5 45q61 0 99.5 -35t38.5 -86q0 -72 -50 -117t-128 -45q-61 0 -97.5 35 t-36.5 86z" />
<glyph unicode="&#x3c;" horiz-adv-x="1085" d="M115 506l12 78q4 31 37 43l874 352q16 6 21.5 2t3.5 -20l-16 -107q-4 -31 -37 -43l-711 -270l610 -287q31 -16 23 -45l-17 -94q-4 -31 -34 -17l-744 363q-31 16 -22 45z" />
<glyph unicode="=" horiz-adv-x="1085" d="M27 319l12 72q2 18 10 24.5t29 6.5h876q20 0 25.5 -6t1.5 -25l-12 -72q-2 -18 -10.5 -24t-28.5 -6h-877q-20 0 -25 6t-1 24zM88 686l12 72q2 18 10.5 24t28.5 6h877q20 0 25.5 -6t0.5 -24l-12 -72q-2 -18 -10 -24.5t-29 -6.5h-876q-20 0 -25.5 6.5t-1.5 24.5z" />
<glyph unicode="&#x3e;" horiz-adv-x="1085" d="M33 115l18 102q6 33 37 43l703 293l-605 266q-27 10 -22 43l18 99q6 29 31 18l750 -352q27 -12 20 -43l-12 -78q-6 -33 -37 -43l-875 -367q-16 -6 -23 -2t-3 21z" />
<glyph unicode="?" horiz-adv-x="952" d="M166 1085q23 168 140.5 254t299.5 86q180 0 276.5 -82.5t96.5 -242.5q0 -348 -465 -471l-47 -275q-4 -30 -39 -30h-111q-20 0 -25 6t-1 24l63 375q4 31 37 39q166 33 263.5 103.5t97.5 215.5q0 80 -44 129.5t-135 49.5q-94 0 -148 -43t-73 -140q-4 -18 -11 -24t-28 -6 h-120q-18 0 -23.5 6t-3.5 26zM197 72q0 68 45 108.5t114 40.5q57 0 92 -31.5t35 -78.5q0 -68 -46 -109t-118 -41q-57 0 -89.5 32t-32.5 79z" />
<glyph unicode="@" horiz-adv-x="1796" d="M96 432q0 369 224.5 608.5t588.5 239.5q362 0 563 -179t201 -530q0 -78 -12 -152.5t-46 -152.5t-85 -135t-136 -94t-192 -37q-168 0 -188 119q-94 -119 -277 -119q-135 0 -209.5 82t-74.5 246q0 102 25.5 201.5t77.5 187.5t143.5 141t207.5 53q78 0 136 -27.5t83 -62.5 l7 33q2 18 10 24.5t28 6.5h129q20 0 25.5 -6.5t1.5 -24.5l-108 -635q-8 -51 7 -84t54 -33q143 0 224 133.5t81 335.5q0 305 -175 468t-515 163q-315 0 -507.5 -221t-192.5 -545q0 -334 194.5 -497.5t511.5 -163.5q66 0 131 6q20 2 26.5 -3t10.5 -26v-12q6 -33 -29 -35 q-74 -6 -147 -6q-358 0 -577.5 184.5t-219.5 548.5zM647 350q0 -198 172 -198q76 0 143.5 48t79.5 136l64 344q0 4 -16.5 24.5t-61.5 43t-100 22.5q-100 0 -168 -74.5t-90.5 -164t-22.5 -181.5z" />
<glyph unicode="A" horiz-adv-x="1425" d="M-70 31l19 102q4 18 11 24.5t28 4.5h125l618 1200q16 29 47 29h176q33 0 37 -31l183 -1163q6 -41 16 -57.5t35 -16.5q27 0 63 14q31 12 45 -16l15 -31q4 -9 4 -17q0 -17 -19 -28q-104 -70 -213 -70q-86 0 -118.5 41t-49.5 134l-53 288h-457l-141 -276h127q20 2 25.5 -4 t1.5 -25l-21 -102q-4 -31 -39 -31h-438q-19 0 -25 6q-3 3 -4 11q0 6 2 14zM514 592h367l-82 563z" />
<glyph unicode="B" horiz-adv-x="1222" d="M125 31l205 1194h-105q-20 -2 -25 4t-1 24l18 107q4 31 39 33q379 10 428 10q246 0 361.5 -82t115.5 -219q0 -252 -301 -350q133 -23 203 -108t70 -200q0 -203 -153 -312t-384 -124q-117 -8 -297 -8h-147q-20 0 -26 6q-3 3 -3 11q0 6 2 14zM377 162h100q92 0 154.5 8 t130 33.5t101.5 84t34 148.5q0 100 -72 154.5t-213 54.5h-147zM494 815h77q150 0 249.5 59.5t99.5 192.5q0 96 -74 131t-205 35h-74z" />
<glyph unicode="C" horiz-adv-x="1294" d="M102 557q0 156 49.5 306.5t141.5 277.5t246.5 205.5t347.5 78.5q223 0 411 -106q23 -11 23 -34q0 -6 -2 -13l-45 -256q-4 -31 -39 -31h-111q-20 0 -25 6t-1 25l32 145q-106 84 -270 84q-137 0 -239.5 -58.5t-158.5 -158.5t-82 -211.5t-26 -238.5q0 -195 90.5 -308.5 t282.5 -113.5q168 0 238 59l18 133q4 20 10 26.5t27 6.5h113q20 0 25 -6t1 -25l-45 -256q-8 -33 -35 -45q-166 -74 -385 -74q-299 0 -445.5 154t-146.5 428z" />
<glyph unicode="D" horiz-adv-x="1404" d="M125 31l205 1194h-105q-20 -2 -25 4t-1 24l18 107q4 31 39 33q389 10 453 10q113 0 214 -24.5t201.5 -81t161 -170t60.5 -271.5q0 -391 -236 -623.5t-674 -232.5h-284q-20 0 -26 6q-3 3 -3 11q0 6 2 14zM377 162h135q152 0 267.5 55t182 149.5t99.5 208t33 242.5 q0 217 -100.5 316.5t-299.5 99.5h-131z" />
<glyph unicode="E" horiz-adv-x="1155" d="M-14 31l16 102q4 18 11 24.5t28 4.5h106l185 1063h-107q-20 -2 -25 4t-1 24l18 107q4 31 39 31h897q19 -1 25 -7q3 -4 4 -11q0 -6 -2 -13l-47 -275q-2 -18 -10.5 -24t-28.5 -6h-111q-20 0 -25.5 6t-1.5 24l33 142h-424l-78 -436h396q20 0 25 -6.5t1 -24.5l-16 -98 q-4 -31 -39 -31h-393l-84 -469h469l18 141q4 20 10.5 26.5t26.5 6.5h111q20 0 25 -6t1 -25l-49 -274q-2 -18 -10 -24.5t-29 -6.5h-938q-20 0 -25 6q-3 3 -3 11q0 6 2 14z" />
<glyph unicode="F" horiz-adv-x="1105" d="M-14 31l16 102q4 18 11 24.5t28 4.5h104l187 1063h-107q-20 -2 -25 4t-1 24l18 107q4 31 39 31h918q20 -1 25 -7q3 -4 3 -10t-2 -14l-47 -275q-2 -18 -10 -24t-29 -6h-110q-20 0 -25.5 6t-1.5 24l33 142h-445l-78 -426h396q20 0 25 -6.5t1 -24.5l-16 -98q-4 -31 -39 -31 h-393l-86 -479h190q20 2 25.5 -4t1.5 -25l-17 -102q-4 -18 -11 -24.5t-27 -6.5h-525q-20 0 -25 6q-3 3 -3 11q0 6 2 14z" />
<glyph unicode="G" horiz-adv-x="1427" d="M102 559q0 354 216.5 610t572.5 256q233 0 407 -104q29 -18 21 -49l-45 -256q-4 -31 -39 -31h-111q-20 0 -25 6t-1 25l32 147q-131 84 -272 84q-170 0 -287.5 -98t-168 -244.5t-50.5 -326.5q0 -184 95.5 -301t302.5 -117q137 0 231 47l51 272h-131q-20 -2 -25.5 4 t-1.5 25l19 104q4 31 39 31h422q20 0 25 -6q3 -3 3 -11q0 -6 -2 -14l-18 -104q-4 -18 -11.5 -24.5t-27.5 -4.5h-84l-68 -385q-8 -31 -34 -43q-176 -76 -414 -76q-147 0 -259 32t-179.5 84t-109.5 130t-57.5 159t-15.5 179z" />
<glyph unicode="H" horiz-adv-x="1521" d="M-14 31l16 102q4 29 39 29h104l189 1063h-109q-20 -2 -25 4t-1 24l18 107q4 31 39 31h442q20 0 25.5 -6.5t1.5 -24.5l-18 -107q-4 -18 -11.5 -24t-27.5 -4h-105l-76 -422h621l76 422h-109q-20 -2 -25.5 4t-0.5 24l18 107q2 18 10 24.5t29 6.5h442q20 -1 26 -7q3 -4 3 -11 q0 -6 -2 -13l-19 -107q-4 -18 -11 -24t-27 -4h-105l-182 -1020q-3 -13 -3 -24q0 -39 36 -40q25 0 61 17q31 12 43 -15l16 -32q14 -27 -10 -48q-111 -88 -223 -88q-159 0 -159 142q0 24 5 53l82 457h-620l-84 -465h106q20 0 25.5 -5t3.5 -24l-18 -102q-4 -31 -37 -31h-443 q-20 0 -25 6q-3 3 -3 11q0 6 2 14z" />
<glyph unicode="I" horiz-adv-x="669" d="M-12 31l16 102q4 18 11.5 24.5t27.5 4.5h104l185 1063h-105q-20 -2 -25 4t-1 24l16 107q4 18 11.5 24.5t27.5 6.5h442q20 -1 26 -7q3 -4 3 -11q0 -6 -2 -13l-16 -107q-4 -18 -11.5 -24t-27.5 -4h-107l-186 -1063h106q20 2 25.5 -4t1.5 -25l-16 -102q-4 -18 -11.5 -24.5 t-27.5 -6.5h-441q-20 0 -25 6q-3 3 -3 11q0 6 2 14z" />
<glyph unicode="J" horiz-adv-x="966" d="M-72 -395l33 84q12 29 43 18q96 -35 201 -35q92 0 145 70t80 221l221 1264h-268l-21 -140q-4 -18 -10 -24t-26 -6h-121q-20 0 -25.5 6t-1.5 24l47 273q4 31 39 31h613q20 0 25 -7q3 -3 3 -10q0 -6 -2 -14l-254 -1446q-37 -201 -134 -303.5t-294 -102.5q-147 0 -274 54 q-22 9 -22 28q0 7 3 15z" />
<glyph unicode="K" horiz-adv-x="1378" d="M-14 31l16 102q4 18 11 24.5t28 4.5h104l187 1063h-107q-20 -2 -25 4t-1 24l16 107q4 18 11 24.5t28 6.5h442q20 0 25.5 -6.5t1.5 -24.5l-16 -107q-4 -18 -11.5 -24t-27.5 -4h-107l-78 -439h105l409 439h-92q-20 -2 -25.5 4t-2.5 24l18 107q4 18 10 24.5t27 6.5h407 q19 -1 25 -7q3 -4 4 -11q0 -6 -2 -13l-20 -107q-4 -18 -11.5 -24t-27.5 -4h-107l-455 -482l299 -550q39 -70 84 -70q31 0 62 14q31 12 45 -16l20 -33q10 -16 7.5 -25.5t-19.5 -19.5q-100 -68 -199 -68q-90 0 -138 35t-99 131l-254 477h-98l-80 -456h106q20 2 25.5 -4 t1.5 -25l-16 -102q-4 -18 -11.5 -24.5t-27.5 -6.5h-441q-20 0 -25 6q-3 3 -3 11q0 6 2 14z" />
<glyph unicode="L" horiz-adv-x="1075" d="M-14 31l16 102q4 18 11 24.5t28 4.5h106l185 1063h-107q-20 -2 -25 4t-1 24l18 107q4 31 39 31h442q20 0 25.5 -6.5t1.5 -24.5l-18 -107q-4 -18 -11.5 -24t-27.5 -4h-105l-186 -1061h424l20 141q4 18 10.5 24.5t26.5 6.5h111q20 0 25 -6q3 -3 3 -11q0 -6 -2 -14l-67 -383 q-2 -18 -10.5 -24.5t-28.5 -6.5h-111q-20 0 -24 6.5t0 24.5l20 78h-762q-20 0 -25 6q-3 3 -3 11q0 6 2 14z" />
<glyph unicode="M" horiz-adv-x="1867" d="M-16 31l18 102q4 18 10 24.5t27 4.5h106l187 1063h-105q-20 -2 -25 4t-1 24l16 107q4 18 11.5 24.5t27.5 6.5h348q35 0 39 -31l238 -1114l606 1116q16 29 47 29h354q20 -1 26 -7q3 -4 3 -11q0 -6 -2 -13l-19 -107q-4 -18 -11 -24t-27 -4h-105l-170 -1020q-3 -14 -3 -25 q0 -39 34 -39q25 0 61 17q31 12 43 -15l17 -32q14 -27 -11 -48q-110 -88 -223 -88q-158 0 -158 141q0 25 5 54l151 868l-559 -1009q-18 -29 -49 -29h-152q-35 0 -39 31l-225 1009l-158 -878h134q20 2 25 -4t3 -25l-18 -102q-4 -18 -10.5 -24.5t-26.5 -6.5h-412q-20 0 -25 6 q-4 4 -4 15q0 5 1 10z" />
<glyph unicode="N" horiz-adv-x="1521" d="M-14 31l18 102q4 18 11.5 24.5t27.5 4.5h107l182 1063h-107q-20 -2 -25 4t-1 24l18 107q4 31 39 31h291q31 0 47 -29l500 -1032l163 895h-102q-20 -2 -25.5 4t-1.5 24l17 107q4 18 11 24.5t28 6.5h385q20 -1 25 -7q3 -4 3 -10t-2 -14l-16 -107q-4 -18 -11.5 -24t-27.5 -4 h-104l-211 -1194q-4 -31 -39 -31h-146q-31 0 -47 29l-510 1034l-157 -901h166q20 2 25 -4t1 -25l-16 -102q-4 -18 -11.5 -24.5t-27.5 -6.5h-451q-20 0 -25 6q-3 3 -3 11q0 6 2 14z" />
<glyph unicode="O" horiz-adv-x="1445" d="M98 522q0 242 88 444.5t265.5 330.5t410.5 128q70 0 137.5 -14t140 -52t126 -97.5t88.5 -160t35 -229.5q0 -379 -212 -638t-571 -259q-240 0 -374 148.5t-134 398.5zM350 553q0 -164 68.5 -274.5t230.5 -110.5q111 0 197 46t138 116.5t87 165t47 182.5t12 178 q0 182 -73.5 285.5t-227.5 103.5q-94 0 -170.5 -31.5t-127 -88t-87 -124t-56 -148.5t-29 -153.5t-9.5 -146.5z" />
<glyph unicode="P" horiz-adv-x="1159" d="M-12 31l16 102q4 18 11.5 24.5t27.5 4.5h104l183 1063h-105q-20 -2 -25 4t-1 24l20 107q4 31 39 33q389 10 436 10q231 0 354 -94.5t123 -261.5q0 -238 -168.5 -364t-441.5 -126q-61 0 -115 6l-69 -401h168q20 2 25 -4t1 -25l-16 -102q-4 -18 -11.5 -24.5t-27.5 -6.5 h-502q-20 0 -25 6q-3 3 -3 11q0 6 2 14zM477 719q16 -2 64 -2q178 0 284.5 80t106.5 241q0 195 -293 195h-74z" />
<glyph unicode="Q" horiz-adv-x="1445" d="M98 522q0 242 88 444.5t265.5 330.5t410.5 128q70 0 137.5 -14t140 -52t126 -97.5t88.5 -160t35 -229.5q0 -324 -169 -572.5t-462 -309.5v-15q86 -18 184 -86q10 -6 31.5 -20t31 -20.5t28 -17.5t26.5 -16t22.5 -13.5t22.5 -11.5t18.5 -8t18.5 -6t16 -1q25 0 32 10t7 41 q0 35 31 35h45q35 0 35 -68q0 -109 -49.5 -159t-124.5 -50q-53 0 -98.5 20.5t-125.5 71.5q-244 156 -282 156q-37 0 -37 -44v-9q0 -29 -31 -29h-57q-29 0 -29 33q0 70 14.5 110.5t57.5 75.5v15q-215 31 -331 173t-116 365zM350 553q0 -76 14.5 -140.5t46 -125t93 -95 t145.5 -34.5q111 0 197 47t138 118.5t87 168t47 185.5t12 179q0 182 -73.5 286.5t-227.5 104.5q-111 0 -198.5 -47t-139 -118.5t-84 -167t-45 -183.5t-12.5 -178z" />
<glyph unicode="R" horiz-adv-x="1277" d="M-12 31l16 102q4 18 11.5 24.5t27.5 4.5h104l185 1063h-105q-20 -2 -25 4t-1 24l18 107q4 31 39 33q389 10 436 10q231 0 352 -87t121 -245q0 -285 -327 -420l153 -456q25 -72 74 -72q27 0 66 16q31 12 43 -16l16 -35q4 -9 4 -17q0 -17 -18 -28q-96 -68 -205 -68 q-88 0 -131 40t-74 126l-158 457h-41q-66 0 -114 6l-78 -442h127q20 2 25.5 -4t0.5 -25l-16 -102q-4 -18 -11.5 -24.5t-27.5 -6.5h-461q-20 0 -25 6q-3 3 -3 11q0 6 2 14zM477 741q16 -2 64 -2q170 0 278.5 75t108.5 224q0 195 -289 195h-74z" />
<glyph unicode="S" horiz-adv-x="1058" d="M18 66l54 325q4 18 11 24.5t28 6.5h110q20 0 25.5 -6t1.5 -25l-43 -188q78 -51 219 -51q303 0 303 225q0 51 -17.5 91t-60.5 71.5t-74.5 50t-97.5 49.5q-74 35 -109.5 55.5t-88 63.5t-75 100t-22.5 135q0 184 136.5 308t383.5 124q158 0 314 -45q26 -8 26 -29 q0 -6 -2 -12l-48 -280q-4 -31 -40 -31h-110q-20 0 -24.5 6t-0.5 25l33 139q-80 49 -191 49q-123 0 -189.5 -51t-66.5 -137q0 -23 3.5 -41.5t13.5 -35.5t16 -29.5t25.5 -29t28 -23.5t36 -22.5t35.5 -19.5t42 -21.5t40 -21.5q55 -27 85 -44t78 -54t74.5 -73t47 -93t20.5 -123 q0 -209 -148.5 -331t-396.5 -122q-203 0 -360 50q-27 8 -27 30q0 5 2 11z" />
<glyph unicode="T" horiz-adv-x="1214" d="M129 1087l47 273q4 31 39 31h1067q20 -1 26 -7q3 -4 3 -11q0 -6 -2 -13l-47 -273q-4 -31 -39 -30h-121q-20 0 -24.5 6t-0.5 24l33 140h-272l-191 -1065h168q20 2 25.5 -4.5t3.5 -24.5l-19 -102q-4 -18 -10 -24.5t-27 -6.5h-565q-20 0 -25 6t-3 25l18 102q4 18 10 24.5 t27 4.5h166l188 1065h-274l-17 -137q-4 -20 -10 -26.5t-27 -6.5h-120q-20 0 -26 6q-3 3 -3 11q0 5 2 13z" />
<glyph unicode="U" horiz-adv-x="1476" d="M170 348q0 68 16 162l125 715h-108q-20 -2 -25.5 4t-1.5 24l19 107q2 18 10 24.5t28 6.5h443q20 0 25.5 -6.5t0.5 -24.5l-18 -107q-4 -18 -11.5 -24t-27.5 -4h-104l-115 -643q-20 -113 -20 -187q0 -115 61 -175t219 -60q176 0 266 91t123 286l119 688h-109q-20 -2 -25 4 t-1 24l18 107q4 31 39 31h410q20 -1 25 -7q3 -4 3 -10t-2 -14l-18 -107q-4 -18 -11 -24t-28 -4h-104l-131 -740q-20 -113 -56.5 -197.5t-104 -159.5t-181 -114t-269.5 -39q-254 0 -366.5 93.5t-112.5 279.5z" />
<glyph unicode="V" horiz-adv-x="1400" d="M135 1253l19 107q2 18 10 24.5t29 6.5h497q20 0 25.5 -6.5t1.5 -24.5l-17 -107q-4 -18 -11 -24t-27 -4h-113l131 -998l481 998h-127q-20 -2 -25 4t-1 24l18 107q2 18 10 24.5t29 6.5h440q19 -1 25 -7q3 -4 4 -11q0 -6 -2 -13l-21 -107q-4 -18 -11 -24t-27 -4h-119 l-609 -1211q-16 -28 -47 -28h-194q-33 0 -37 30l-178 1209h-127q-20 -2 -26 4q-3 3 -3 11q0 5 2 13z" />
<glyph unicode="W" horiz-adv-x="2041" d="M135 1253l19 107q2 18 10 24.5t29 6.5h493q20 0 25.5 -6.5t1.5 -24.5l-17 -107q-4 -18 -11 -24t-28 -4h-129l47 -955l486 1092q12 29 45 29h174q20 0 26.5 -6.5t8.5 -26.5l102 -1094l387 961h-127q-20 -2 -25 4t-1 24l20 107q4 31 39 31h424q20 -1 26 -7q3 -4 3 -11 q0 -6 -2 -13l-19 -107q-4 -18 -11 -24t-28 -4h-104l-504 -1211q-12 -28 -43 -28h-2h-201q-20 0 -26 6t-11 26l-100 1047l-463 -1051q-12 -28 -45 -28h-207q-20 0 -26 6t-9 26l-79 1207h-121q-20 -2 -26 4q-3 3 -3 11q0 5 2 13z" />
<glyph unicode="X" horiz-adv-x="1386" d="M-84 31l14 102q4 18 11.5 24.5t27.5 4.5h107l493 530l-295 533h-108q-20 -2 -25.5 4t-1.5 24l17 107q4 18 11 24.5t28 6.5h507q20 0 25.5 -6.5t1.5 -24.5l-16 -107q-4 -18 -11.5 -24t-27.5 -4h-123l199 -369l333 369h-112q-20 -2 -25.5 4t-1.5 24l17 107q4 18 11 24.5 t27 6.5h428q19 -1 25 -7q3 -4 4 -11q0 -6 -2 -13l-16 -107q-4 -18 -11.5 -24t-27.5 -4h-105l-467 -496l310 -567h123q20 2 25 -4t1 -25l-16 -102q-4 -18 -11.5 -24.5t-27.5 -6.5h-533q-20 0 -25 6t-1 25l16 102q4 18 11.5 24.5t27.5 4.5h129l-211 389l-360 -389h129 q20 2 25 -4t1 -25l-16 -102q-4 -18 -11 -24.5t-28 -6.5h-442q-19 0 -25 6q-3 3 -4 11q0 6 2 14z" />
<glyph unicode="Y" horiz-adv-x="1359" d="M162 1253l20 107q2 18 10.5 24.5t28.5 6.5h484q20 0 25 -6.5t1 -24.5l-16 -107q-4 -18 -11.5 -24t-27.5 -4h-109l162 -488l346 488h-114q-20 -2 -25.5 4t-1.5 24l20 107q4 31 39 31h420q20 0 25 -7q4 -3 4 -11q0 -5 -2 -13l-19 -107q-4 -18 -11 -24t-28 -4h-104 l-483 -672l-68 -391h107q20 2 25 -4t1 -25l-16 -102q-4 -18 -11.5 -24.5t-27.5 -6.5h-443q-20 0 -25 6t-1 25l16 102q4 18 11.5 24.5t27.5 4.5h107l63 364l-256 699h-117q-20 -2 -25 4q-3 3 -3 10q0 6 2 14z" />
<glyph unicode="Z" horiz-adv-x="1204" d="M-33 31l13 82q4 27 26 55l932 1063h-547l-20 -162q-4 -20 -10.5 -26.5t-26.5 -6.5h-121q-20 0 -25.5 6.5t-1.5 24.5l47 293q4 18 11.5 24.5t27.5 6.5h963q19 -1 25 -7q3 -4 4 -11q0 -6 -2 -13l-13 -76q-4 -27 -26 -55l-942 -1069h608l16 164q4 20 10.5 26t26.5 6h117 q20 0 25.5 -6t0.5 -24l-69 -404q-4 -31 -39 -31h-111q-20 0 -24 6.5t0 24.5l20 78h-868q-20 0 -26 6q-3 3 -3 11q0 6 2 14z" />
<glyph unicode="[" horiz-adv-x="690" d="M84 -276l309 1773q4 31 39 31h309q20 0 25.5 -6t1.5 -25l-18 -121q-4 -18 -11.5 -24t-27.5 -4l-144 10l-264 -1501l148 10q20 2 25 -4.5t1 -24.5l-18 -114q-4 -31 -39 -31h-309q-20 0 -25.5 6t-1.5 25z" />
<glyph unicode="\" horiz-adv-x="1099" d="M168 1519q6 7 29 7h82q25 0 34 -7.5t17 -29.5l676 -1659q8 -23 1.5 -30t-28.5 -7h-80q-25 0 -34 7t-17 30l-678 1659q-8 23 -2 30z" />
<glyph unicode="]" horiz-adv-x="690" d="M-70 -276l19 120q4 18 11 24.5t28 4.5l143 -10l264 1501l-147 -10q-20 -2 -25.5 4t-1.5 24l19 115q2 18 10 24.5t29 6.5h309q20 0 25 -6t1 -25l-309 -1773q-2 -18 -10 -24.5t-29 -6.5h-309q-20 0 -25.5 6t-1.5 25z" />
<glyph unicode="^" horiz-adv-x="1196" d="M199 672l469 712q16 29 49 29h96q31 0 37 -29l219 -712q6 -29 -25 -29h-131q-30 0 -36 29l-144 530l-330 -530q-16 -29 -49 -29h-145q-31 0 -10 29z" />
<glyph unicode="_" d="M-147 -299l8 55q4 31 39 31h985q20 0 25 -6t1 -25l-8 -55q-2 -18 -10.5 -24.5t-28.5 -6.5h-985q-20 0 -25.5 6.5t-0.5 24.5z" />
<glyph unicode="`" d="M675 1492.5q5 6.5 23 6.5h160q35 0 39 -31l45 -249q4 -18 -1 -24.5t-26 -6.5h-102q-33 0 -43 31l-94 249q-6 18 -1 24.5z" />
<glyph unicode="a" horiz-adv-x="1210" d="M61 352q0 123 31 240t92.5 218t169 163.5t246.5 62.5q178 0 277 -125l14 72q2 18 10.5 24.5t28.5 6.5h143q20 0 25.5 -6.5t1.5 -24.5l-139 -784q-2 -11 -2 -19q0 -38 42 -39q23 0 56 17q31 12 45 -15l18 -32q5 -10 5 -19q0 -16 -15 -29q-121 -88 -225 -88 q-160 0 -160 155v11q-119 -166 -326 -166q-162 0 -250 93.5t-88 283.5zM293 381q0 -115 46 -172t155 -57q88 0 169.5 59t98.5 162l69 381l-1 1q-73 107 -209 107q-92 0 -160 -46t-102.5 -122t-50 -153.5t-15.5 -159.5z" />
<glyph unicode="b" horiz-adv-x="1208" d="M88 20l234 1344h-89q-20 -2 -25 4t-1 25l18 104q4 31 39 31h283q20 0 25.5 -6t0.5 -25l-108 -629q131 168 338 168q156 0 244 -100t88 -285q0 -285 -133.5 -480.5t-389.5 -195.5q-180 0 -299 123l-188 -104q-17 -10 -29 0q-9 7 -9 18q0 4 1 8zM360 258q14 -18 33 -35.5 t76 -45t121 -27.5q303 0 303 452q0 113 -49.5 178.5t-151.5 65.5q-90 0 -170 -56.5t-98 -158.5z" />
<glyph unicode="c" horiz-adv-x="966" d="M53 395q0 258 147.5 449.5t420.5 191.5q180 0 260 -97q69 -83 68 -211q0 -21 -1 -42q-2 -33 -35 -33h-110q-18 0 -24.5 6.5t-6.5 26.5v14q0 81 -42 119q-46 41 -134 41q-113 0 -184.5 -75.5t-96 -173t-24.5 -210.5q0 -254 241 -254q109 0 232 70q27 16 43 -12l33 -66 q18 -27 -11 -45q-168 -119 -383 -119q-197 0 -295 114t-98 306z" />
<glyph unicode="d" horiz-adv-x="1200" d="M51 362q0 96 18.5 189.5t60.5 182.5t103.5 155.5t153.5 106.5t205 40q96 0 165.5 -36.5t96.5 -77.5l76 442h-88q-20 -2 -25.5 4t-1.5 25l19 104q2 18 10 24.5t28 6.5h283q19 0 25 -6q3 -3 4 -11q0 -6 -2 -14l-232 -1298q-2 -11 -2 -20q0 -38 41 -38q23 0 55 17 q31 12 46 -15l18 -32q14 -27 -10 -48q-121 -88 -226 -88q-90 0 -124.5 42t-34.5 124q-117 -166 -324 -166q-162 0 -250 96.5t-88 290.5zM283 391q0 -121 45.5 -180t156.5 -59q88 0 169 58t98 161l69 383l-1 1q-73 107 -210 107q-92 0 -159.5 -45t-102.5 -119.5t-50 -150.5 t-15 -156z" />
<glyph unicode="e" horiz-adv-x="968" d="M51 379q0 121 36 235.5t102.5 210t178 153.5t248.5 58q156 0 238 -74.5t82 -197.5q-2 -184 -151.5 -268t-362.5 -84q-49 0 -131 8q-2 -16 -2 -45q0 -102 56 -165t171 -63q131 0 248 70q29 14 43 -12l35 -64q17 -27 -8 -47q-164 -119 -377 -119q-209 0 -307.5 107.5 t-98.5 296.5zM307 571q41 -8 78 -8q129 0 222 47t93 144q0 51 -36 78.5t-95 27.5q-106 0 -173.5 -82t-88.5 -207z" />
<glyph unicode="f" horiz-adv-x="708" d="M-303 -399l35 88q12 29 43 16q61 -33 129 -33q88 0 119.5 49.5t52.5 172.5l170 954h-125q-20 -2 -25.5 4t-1.5 25l17 106q4 18 11 24.5t28 6.5h124l35 198q14 78 31.5 127.5t54.5 104.5t107.5 82.5t173.5 27.5q125 0 219 -47q20 -10 20 -26q0 -8 -4 -17l-39 -94 q-12 -29 -43 -16q-55 30 -123 30h-4q-88 0 -119.5 -49t-52.5 -172l-26 -149h246q20 0 25 -6.5t1 -24.5l-16 -106q-4 -18 -11.5 -24.5t-27.5 -4.5h-246l-176 -995q-12 -76 -29.5 -126.5t-55.5 -105.5t-108.5 -82.5t-173.5 -27.5q-125 0 -219 47q-20 10 -20 26q0 8 4 17z" />
<glyph unicode="g" horiz-adv-x="1200" d="M32 -410q-1 3 -1 6q0 8 6 21l37 104q8 18 16 21.5t25 -4.5q115 -55 252 -55q131 0 208.5 65.5t106.5 222.5l29 154q-49 -66 -133 -108t-181 -42q-162 0 -254 89.5t-92 279.5q0 182 55.5 334.5t180.5 255t299 102.5q178 0 282 -127l13 74q4 18 11 24.5t28 6.5h268 q20 0 26 -6q2 -4 2 -10t-2 -15l-18 -109q-4 -18 -11.5 -24t-27.5 -4l-92 2l-125 -721q-25 -150 -49 -252q-92 -367 -502 -367q-201 0 -336 66q-18 8 -21 16zM281 377q0 -223 202 -223q92 0 172 58t97 163l69 379l-1 1q-80 105 -218 107q-88 0 -154.5 -45t-100.5 -119.5 t-50 -153.5t-16 -167z" />
<glyph unicode="h" horiz-adv-x="1226" d="M90 31l232 1333h-89q-20 -2 -25 4t-1 25l18 104q4 31 39 31h285q20 0 25.5 -6t0.5 -25l-110 -631q143 170 354 170q260 0 260 -245q0 -61 -18 -150l-92 -436q-3 -14 -3 -25q0 -38 33 -39q25 0 62 17q31 12 43 -15l16 -32q5 -10 5 -19q0 -16 -15 -29q-111 -88 -223 -88 q-160 0 -160 138q0 26 6 57l86 416q16 86 17 123q0 125 -140 125q-102 0 -180 -58.5t-94 -142.5l-105 -602q-2 -18 -10 -24.5t-28 -6.5h-162q-19 0 -25 6q-3 4 -4 12q0 5 2 13z" />
<glyph unicode="i" horiz-adv-x="606" d="M113 168l116 680h-88q-20 -2 -25 4t-1 25l20 106q4 31 39 31h285q20 0 25 -6.5t1 -24.5l-139 -780q-3 -13 -3 -24q0 -39 36 -40q25 0 61 17q31 12 43 -15l17 -32q14 -27 -11 -48q-111 -88 -223 -88q-158 0 -158 141q0 25 5 54zM238 1323q0 68 48 113t107 45q68 0 105 -39 t37 -96q0 -70 -46 -114t-114 -44q-63 0 -100 39t-37 96z" />
<glyph unicode="j" horiz-adv-x="591" d="M-354 -408l41 99q12 31 41 18q58 -22 115 -22h5q182 0 228 260l157 903h-88q-20 -2 -25 4t-1 25l16 104q4 18 11.5 24.5t27.5 6.5h285q20 0 25 -6.5t1 -24.5l-188 -1067q-16 -92 -41 -159.5t-70 -127t-118.5 -90.5t-176.5 -31q-121 0 -229 43q-20 7 -20 24q0 7 4 17z M238 1323q0 68 48 113t107 45q68 0 105 -39t37 -96q0 -70 -46 -114t-114 -44q-63 0 -100 39t-37 96z" />
<glyph unicode="k" horiz-adv-x="1128" d="M88 31l234 1331h-91q-20 -2 -25 4t-1 25l18 106q2 18 10.5 24.5t28.5 6.5h285q20 0 25.5 -6t0.5 -25l-141 -817h51q233 0 326 303q8 31 41 31h158q18 0 22 -6.5t0 -24.5q-37 -133 -129 -224t-215 -114q90 -10 133 -63.5t60 -180.5l24 -204q8 -74 51 -74q31 0 68 18 q18 8 26.5 5t16.5 -21l14 -31q4 -10 4 -18q0 -16 -16 -27q-104 -74 -209 -74q-88 0 -125 42t-51 133l-33 221q-12 90 -44 120.5t-132 30.5h-70l-88 -491q-4 -31 -39 -31h-161q-19 0 -25 6q-3 3 -4 11q0 6 2 14z" />
<glyph unicode="l" horiz-adv-x="595" d="M111 168l208 1196h-88q-20 -2 -25 4t-1 25l18 104q2 18 10.5 24.5t28.5 6.5h285q19 0 25 -6q3 -3 3 -10q0 -6 -2 -15l-231 -1294q-2 -13 -2 -23q0 -40 37 -41q25 0 61 17q31 12 43 -15l17 -32q14 -27 -11 -48q-111 -88 -223 -88q-158 0 -158 141q0 25 5 54z" />
<glyph unicode="m" horiz-adv-x="1779" d="M88 31l143 819h-88q-20 -2 -25 4t-3 25l18 104q4 18 10.5 24.5t26.5 6.5h256q20 0 25.5 -6.5t3.5 -24.5l-19 -125q133 178 344 178q104 0 166 -49t80 -131q143 180 342 180q129 0 195.5 -65.5t66.5 -188.5q0 -51 -18 -143l-90 -436q-3 -14 -3 -25q0 -38 33 -39 q25 0 62 17q31 12 43 -15l16 -32q5 -10 5 -19q0 -16 -15 -29q-111 -88 -223 -88q-161 0 -161 135q0 27 7 60l84 414q16 88 16 133q0 125 -126 125q-88 0 -159 -56.5t-83 -128.5l-109 -624q-4 -31 -39 -31h-163q-20 0 -25.5 6t-1.5 25l98 561q14 82 15 123q0 125 -125 125 q-92 0 -163 -65.5t-85 -147.5l-107 -596q-2 -18 -10 -24.5t-29 -6.5h-159q-19 0 -25 6q-3 3 -4 11q0 6 2 14z" />
<glyph unicode="n" horiz-adv-x="1226" d="M90 31l143 819h-88q-20 -2 -25 4t-1 25l16 104q4 18 11.5 24.5t27.5 6.5h258q20 0 25.5 -6.5t1.5 -24.5l-19 -119q145 172 365 172q129 0 201.5 -66.5t72.5 -189.5q0 -55 -16 -129l-94 -448q-3 -14 -3 -25q0 -38 33 -39q25 0 62 17q31 12 43 -15l16 -32q5 -10 5 -19 q0 -16 -15 -29q-111 -88 -223 -88q-161 0 -161 135q0 27 7 60l88 426q14 76 15 117q0 66 -31 98.5t-107 32.5q-102 0 -181 -57.5t-93 -141.5l-107 -612q-2 -18 -10 -24.5t-28 -6.5h-162q-19 0 -25 6q-3 4 -4 12q0 5 2 13z" />
<glyph unicode="o" horiz-adv-x="1105" d="M51 383q0 287 151.5 470t426.5 183q53 0 102 -8t106.5 -34.5t99.5 -69.5t70.5 -119t28.5 -174q0 -297 -158.5 -476.5t-439.5 -179.5q-184 0 -285.5 104.5t-101.5 303.5zM289 383q0 -238 184 -238q90 0 156.5 49.5t100.5 128t49.5 154.5t15.5 150q0 231 -201 231 q-90 0 -154.5 -47t-95.5 -125t-43 -151.5t-12 -151.5z" />
<glyph unicode="p" horiz-adv-x="1210" d="M6 -440l225 1290h-88q-20 -2 -25 4t-1 25l18 104q4 31 39 31h262q20 0 25.5 -6.5t1.5 -24.5l-21 -111q131 164 344 164q168 0 258.5 -102.5t90.5 -282.5q0 -301 -138.5 -488.5t-392.5 -187.5q-86 0 -162.5 30t-115.5 65l-90 -510q-2 -18 -10.5 -24.5t-28.5 -6.5h-164 q-20 0 -25 6q-4 3 -4 11q0 6 2 14zM356 258q108 -108 232 -108h2q86 0 148.5 39.5t95 110.5t47 147.5t14.5 166.5q0 230 -203 230q-90 0 -170 -56.5t-98 -158.5z" />
<glyph unicode="q" horiz-adv-x="1189" d="M53 354q0 129 32 247t94.5 217.5t169 158.5t243.5 59q178 0 272 -125l19 72q8 31 41 31h141q20 0 25 -6q4 -4 4 -12q0 -5 -2 -13l-224 -1245q-2 -13 -2 -23q0 -40 37 -41q25 0 62 17q31 12 43 -15l16 -32q14 -27 -10 -47q-111 -88 -226 -89q-159 0 -159 137q0 26 6 58 l84 434q-115 -162 -326 -162q-158 0 -249 97.5t-91 281.5zM287 373q0 -221 200 -221q90 0 171 57t98 160l67 385q0 6 -19.5 29.5t-71.5 51t-118 27.5q-92 0 -159.5 -44t-102.5 -117.5t-50 -154.5t-15 -173z" />
<glyph unicode="r" horiz-adv-x="913" d="M90 31l141 817h-88q-20 -2 -25 4t-1 25l18 106q4 31 39 31h260q20 0 25.5 -6.5t1.5 -24.5l-29 -168q129 221 342 221q53 0 109 -12q18 -6 23 -14q3 -5 3 -13q0 -6 -2 -14l-47 -270q-4 -31 -39 -31h-116q-20 0 -25.5 6t-1.5 25l18 108q-29 4 -41 4q-199 0 -247 -278 l-91 -516q-2 -18 -10 -24.5t-28 -6.5h-162q-19 0 -25 6q-3 3 -4 11q0 6 2 14z" />
<glyph unicode="s" horiz-adv-x="942" d="M31 266q0 20 6 26.5t24 6.5h115q20 0 26.5 -6t10.5 -27q8 -70 51.5 -103.5t145.5 -33.5q188 0 188 133q0 59 -43 89t-139 61q-59 18 -83 27.5t-73 35t-70.5 52t-41 73.5t-19.5 107q0 156 112.5 242.5t293.5 86.5q174 0 260 -80q78 -72 78 -186q0 -12 -1 -25q0 -20 -6 -26 t-26 -6h-117q-20 0 -26.5 6t-6.5 26q-2 66 -42 100t-134 34q-168 0 -168 -121q0 -53 45 -83t144 -65q66 -23 104.5 -41t86.5 -52t71.5 -85t23.5 -119q0 -166 -117.5 -252t-310.5 -86q-166 0 -263 70t-99 221z" />
<glyph unicode="t" horiz-adv-x="741" d="M104 874l17 109q4 18 11 24.5t28 6.5h114l48 276q4 18 11 24.5t27 6.5h164q20 0 25.5 -6t1.5 -25l-47 -276h205q20 0 25 -6q3 -4 3 -11q0 -6 -2 -14l-18 -109q-4 -18 -11.5 -24t-27.5 -4h-205l-86 -481q-12 -70 -12 -119q0 -55 21.5 -81t74.5 -26q66 0 123 23 q29 10 41 -19l18 -69q10 -31 -18 -43q-123 -55 -250 -56q-141 0 -195.5 55.5t-54.5 153.5q0 57 21 168l90 494h-115q-19 -2 -25 4q-3 3 -4 11q0 5 2 13z" />
<glyph unicode="u" horiz-adv-x="1236" d="M123 879l18 104q2 18 10.5 24.5t28.5 6.5h283q20 0 25.5 -6.5t0.5 -24.5l-102 -571q-12 -74 -14 -130v-6q1 -50 33 -80q34 -32 112 -32q94 0 173 61.5t93 139.5l111 618q2 18 10.5 24.5t28.5 6.5h164q20 0 25 -6.5t1 -24.5l-139 -784q-2 -11 -2 -20q0 -38 41 -38 q23 0 55 17q31 12 45 -15l19 -32q5 -10 5 -19q0 -16 -15 -29q-121 -88 -226 -88q-159 0 -159 147v9q-131 -156 -349 -156q-268 0 -268 246q0 47 10 103l95 528l-86 -2q-20 -2 -26 4q-3 3 -3 11q0 6 2 14z" />
<glyph unicode="v" horiz-adv-x="1073" d="M31 930q-3 8 -3 15q0 20 21 30q105 61 201 61q152 0 178 -174l100 -669q242 332 301 788q4 20 10.5 26.5t26.5 6.5h146q18 0 23 -6q4 -5 4 -17q0 -5 -1 -10q-29 -242 -159.5 -521.5t-298.5 -451.5q-19 -22 -51 -22h-3h-164q-20 0 -26 6t-10 24l-131 805q-12 68 -52 68 q-25 0 -59 -15q-29 -10 -39 19z" />
<glyph unicode="w" horiz-adv-x="1644" d="M31 930q-3 8 -3 15q0 20 21 30q105 61 201 61q158 0 170 -178l53 -665q219 328 279 788q4 20 10 26.5t26 6.5h230q20 0 26.5 -6.5t10.5 -26.5l80 -788q117 180 175 363t87 425q4 20 10 26.5t27 6.5h139q17 0 23 -6q4 -4 4 -15q0 -5 -1 -12q-27 -236 -143.5 -521.5 t-273.5 -451.5q-19 -22 -51 -22h-3h-153q-20 0 -26.5 6t-8.5 26l-66 713q-53 -209 -145 -404.5t-209 -318.5q-19 -22 -50 -22h-3h-154q-20 0 -26 6t-11 26l-83 811q-6 68 -52 68q-20 0 -59 -16q-29 -12 -39 18z" />
<glyph unicode="x" horiz-adv-x="1056" d="M-14 25l405 475l-147 338q-25 57 -66 57q-27 0 -65 -18q-31 -12 -43 18l-17 35q-12 31 17 45q115 61 211 61q74 0 117.5 -32.5t78.5 -118.5l86 -211l258 315q20 25 53 25h148q21 0 21 -9q0 -6 -9 -16l-399 -477l153 -334q27 -61 70 -61q23 0 66 16q27 12 43 -16l14 -35 q14 -31 -12 -45q-113 -63 -205 -64q-76 0 -125 33t-84 117l-92 215l-266 -313q-20 -25 -54 -25h-145q-21 0 -21 9q0 6 9 16z" />
<glyph unicode="y" horiz-adv-x="1218" d="M72 -375l43 96q8 18 16 21.5t25 -4.5q127 -57 256 -57q252 0 299 270l32 180q-141 -156 -337 -156q-133 0 -204 64.5t-71 189.5q0 47 8 95l94 528l-86 -2q-20 -2 -25 4t-1 25l16 104q4 18 11.5 24.5t27.5 6.5h283q20 0 25 -6.5t1 -24.5l-100 -571q-14 -76 -14 -119 q0 -63 32.5 -96t112.5 -33q94 0 173 61.5t93 139.5l109 618q2 18 10 24.5t29 6.5h164q20 0 25 -6q3 -4 3 -11q0 -6 -2 -14l-143 -813q-25 -166 -57 -291q-47 -180 -165 -275.5t-331 -95.5q-184 0 -336 74q-20 8 -20 26q0 7 4 17z" />
<glyph unicode="z" horiz-adv-x="952" d="M-6 31l14 78q2 27 25 55l622 706h-323l-19 -129q-4 -18 -10 -24t-27 -6h-108q-20 0 -25.5 6t-1.5 24l41 242q2 18 10.5 24.5t28.5 6.5h699q20 0 25 -6q3 -4 3 -11q0 -6 -2 -14l-12 -74q-4 -27 -27 -55l-631 -713h359l20 148q4 20 10.5 26.5t26.5 6.5h111q20 0 25.5 -6.5 t0.5 -24.5l-43 -260q-4 -18 -11 -24.5t-27 -6.5h-725q-19 0 -25 6q-4 4 -5 16q0 4 1 9z" />
<glyph unicode="{" horiz-adv-x="735" d="M123 -276l201 835h-166q-20 0 -25.5 6t-1.5 25l19 115q2 18 10 24t28 6h166l78 760q4 20 10.5 26.5t26.5 6.5h326q20 0 25 -6t1 -25l-18 -121q-4 -18 -11.5 -24t-27.5 -4l-143 10l-265 -1501l148 10q20 2 25.5 -4t0.5 -25l-18 -114q-4 -31 -39 -31h-326q-20 0 -24 6t0 25 z" />
<glyph unicode="|" horiz-adv-x="526" d="M53 -176l293 1671q2 18 10.5 24.5t28.5 6.5h92q20 0 25.5 -6.5t1.5 -24.5l-293 -1671q-2 -18 -10 -24.5t-29 -6.5h-92q-20 0 -25.5 6t-1.5 25z" />
<glyph unicode="}" horiz-adv-x="737" d="M-86 -276l18 120q4 18 11.5 24.5t27.5 4.5l144 -10l264 1501l-148 -10q-20 -2 -25 4t-1 24l18 115q2 18 10.5 24.5t28.5 6.5h326q20 0 24 -6t0 -25l-200 -835h166q20 0 25 -6.5t1 -24.5l-18 -115q-4 -31 -39 -31h-166l-78 -759q-4 -20 -10 -26.5t-27 -6.5h-325 q-20 0 -25.5 6t-1.5 25z" />
<glyph unicode="~" horiz-adv-x="1302" d="M166 473q27 147 104.5 214t157.5 67q76 0 263.5 -56.5t258.5 -56.5q98 0 113 78q6 33 37 33h76q31 0 24 -31q-23 -145 -97.5 -212t-172.5 -67q-94 0 -283.5 55.5t-232.5 55.5q-49 0 -69.5 -19.5t-31.5 -66.5q-4 -27 -32 -27h-91q-33 0 -24 33z" />
<glyph unicode="&#xa2;" horiz-adv-x="958" d="M80 446q0 166 56.5 301.5t181 220.5t300.5 79l46 143q10 31 43 31h20q18 0 23.5 -6.5t-0.5 -24.5l-48 -156q184 -59 185 -248q0 -41 -8 -79q-4 -18 -10.5 -24.5t-26.5 -6.5h-82q-18 0 -23.5 6t-3.5 24.5t2 49.5q0 98 -82 123l-200 -643q18 -4 57 -5q86 0 188 43 q29 12 41 -18l29 -61q12 -29 -16 -45q-156 -80 -308 -80h-43l-51 -160q-10 -31 -43 -31h-20q-18 0 -23.5 6t0.5 25l55 174q-119 29 -179 127t-60 235zM295 475q0 -145 82 -207l192 621q-133 -12 -203.5 -131t-70.5 -283z" />
<glyph unicode="&#xa3;" horiz-adv-x="944" d="M-74 59q-4 31 25 47q59 33 110 97q74 100 105 274h-90q-18 0 -23.5 6t0.5 25l17 65q10 31 43 31h84l36 150q45 184 148.5 258.5t271.5 74.5q100 0 240 -34q33 -8 25 -39l-39 -236q-4 -18 -11.5 -24t-27.5 -6h-99q-20 0 -24 6t0 24l26 113q-49 39 -133 39 q-74 0 -110.5 -41t-61.5 -137l-35 -148h302q18 0 23 -6t-1 -25l-20 -69q-10 -31 -43 -31h-291q-27 -117 -56.5 -173t-111.5 -130h436l10 113q4 20 10.5 26t26.5 6h111q20 0 25 -6t1 -24l-43 -254q-4 -31 -39 -31h-561q-119 0 -215 -10q-20 -2 -26.5 4t-10.5 26z" />
<glyph unicode="&#xa5;" horiz-adv-x="1071" d="M84 911l18 105q4 31 39 31h412q20 0 25.5 -6.5t1.5 -24.5l-19 -105q-4 -18 -11 -24t-28 -4h-100l160 -260l264 260h-98q-20 -2 -25.5 4t-1.5 24l18 105q2 18 10.5 24.5t28.5 6.5h328q20 0 25.5 -6.5t1.5 -24.5l-19 -105q-4 -18 -11 -24t-28 -4h-71l-330 -328h174 q20 0 25.5 -6t0.5 -25l-6 -43q-4 -18 -11 -24t-28 -6h-219l-14 -91h219q20 0 25.5 -6t1.5 -24l-6 -43q-4 -18 -11.5 -24.5t-27.5 -6.5h-219l-17 -94h74q20 2 25.5 -4t1.5 -25l-17 -102q-4 -18 -11 -24.5t-28 -6.5h-334q-20 0 -25 6t-1 25l16 102q4 18 11.5 24.5t27.5 4.5h72 l16 94h-219q-20 0 -25.5 6t-1.5 25l7 43q4 18 11 24t27 6h220l14 91h-219q-20 0 -25.5 6t-1.5 24l6 43q4 18 11.5 24.5t27.5 6.5h174l-207 328h-77q-20 -2 -25.5 4t-1.5 24z" />
<glyph unicode="&#xa8;" d="M381 1325q0 63 39 102t106 39q51 0 82 -27.5t31 -74.5q0 -63 -39.5 -105t-105.5 -42q-49 0 -81 30.5t-32 77.5zM797 1325q0 63 40 102t105 39q51 0 82 -27.5t31 -74.5q0 -63 -40 -105t-106 -42q-49 0 -80.5 30.5t-31.5 77.5z" />
<glyph unicode="&#xa9;" horiz-adv-x="1802" d="M176 694q0 313 206 519t525 206q330 0 541 -203.5t211 -508.5q0 -322 -209 -527t-543 -205q-336 0 -533.5 201t-197.5 518zM264 694q0 -289 180 -469t461 -180q295 0 480.5 176t185.5 473q0 289 -188.5 471.5t-477.5 182.5q-291 0 -466 -180.5t-175 -473.5zM561 702 q0 178 93.5 295t283.5 117q131 0 197.5 -67.5t68.5 -178.5q0 -20 -6 -26t-27 -6h-59q-20 0 -26.5 6t-10.5 26q-6 59 -38.5 87t-100.5 28q-197 0 -197 -274q0 -135 41 -206t144 -71q72 0 108.5 25.5t42.5 89.5q4 20 10.5 26.5t26.5 6.5h59q20 0 26.5 -6.5t6.5 -26.5 q-4 -109 -75.5 -177.5t-202.5 -68.5q-188 0 -276.5 112.5t-88.5 288.5z" />
<glyph unicode="&#xab;" horiz-adv-x="1009" d="M164 557q-10 29 8 57l254 367q16 27 51 27h131q35 0 15 -27l-265 -391l121 -387q6 -18 1 -24.5t-23 -6.5h-135q-33 0 -43 31zM504 557q-10 29 8 57l254 367q16 27 51 27h131q35 0 15 -27l-265 -391l121 -387q6 -18 1 -24.5t-23 -6.5h-135q-33 0 -44 31z" />
<glyph unicode="&#xad;" horiz-adv-x="577" d="M61 477l23 137q2 18 10 24.5t29 6.5h389q20 0 25.5 -6t1.5 -25l-25 -137q-2 -18 -10.5 -24.5t-28.5 -6.5h-387q-20 0 -25.5 6.5t-1.5 24.5z" />
<glyph unicode="&#xae;" horiz-adv-x="1019" d="M248 1157q0 158 103 260.5t263 102.5q164 0 270.5 -101.5t106.5 -253.5q0 -162 -104.5 -264t-272.5 -102t-267 100t-99 258zM305 1157q0 -139 87 -225t222 -86q141 0 230.5 84t89.5 227q0 139 -90 227.5t-230 88.5q-141 0 -225 -86.5t-84 -229.5zM457 999v15q0 14 14 14 h25v275h-23q-16 0 -16 16v22q0 16 18 17h146q129 0 129 -98q0 -68 -70 -97l70 -135h36q16 0 17 -14v-15q0 -14 -17 -14h-79q-16 0 -21 12l-74 150h-47v-119h25q16 0 16 -18v-9q0 -16 -16 -16h-117q-16 0 -16 14zM565 1196h33q78 0 78 59q0 48 -76 48h-35v-107z" />
<glyph unicode="&#xb4;" d="M557 1196.5q-4 8.5 6 28.5l129 237q16 37 58 37h153q39 0 15 -35l-177 -241q-23 -35 -63 -35h-94q-23 0 -27 8.5z" />
<glyph unicode="&#xb8;" d="M322 -418q-14 27 10 47q100 72 100 125q0 31 -37 68l-18 18q-14 14 2 35l110 131h91l-60 -72l29 -28q57 -61 57 -107q0 -115 -235 -237q-16 -10 -25.5 -7t-19.5 19z" />
<glyph unicode="&#xbb;" horiz-adv-x="1009" d="M80 199l268 393l-125 385q-6 18 -1 24.5t24 6.5h135q33 0 43 -31l115 -354q10 -29 -9 -58l-254 -366q-16 -27 -51 -27h-131q-35 0 -14 27zM420 199l268 393l-125 385q-6 18 -1 24.5t24 6.5h135q33 0 43 -31l115 -354q10 -29 -9 -58l-254 -366q-16 -27 -51 -27h-131 q-35 0 -14 27z" />
<glyph unicode="&#xc1;" horiz-adv-x="1425" d="M-70 31l19 102q4 18 11 24.5t28 4.5h125l618 1200q16 29 47 29h176q33 0 37 -31l183 -1163q6 -41 16 -57.5t35 -16.5q27 0 63 14q31 12 45 -16l15 -31q12 -29 -15 -45q-104 -70 -213 -70q-86 0 -118.5 41t-49.5 134l-53 288h-457l-141 -276h127q20 2 25.5 -4t1.5 -25 l-21 -102q-4 -31 -39 -31h-438q-20 0 -25.5 6t-1.5 25zM514 592h367l-82 563zM766 1528l127 201q16 29 49 28h166q31 0 6 -24l-178 -209q-23 -25 -53 -25h-105q-28 0 -12 29z" />
<glyph unicode="&#xc4;" horiz-adv-x="1425" d="M-70 31l19 102q4 18 11 24.5t28 4.5h125l618 1200q16 29 47 29h176q33 0 37 -31l183 -1163q6 -41 16 -57.5t35 -16.5q27 0 63 14q31 12 45 -16l15 -31q12 -29 -15 -45q-104 -70 -213 -70q-86 0 -118.5 41t-49.5 134l-53 288h-457l-141 -276h127q20 2 25.5 -4t1.5 -25 l-21 -102q-4 -31 -39 -31h-438q-20 0 -25.5 6t-1.5 25zM514 592h367l-82 563zM547 1620q0 63 40 102t105 39q51 0 82 -27.5t31 -74.5q0 -63 -40 -105.5t-106 -42.5q-49 0 -80.5 31t-31.5 78zM963 1620q0 63 38.5 102t106.5 39q51 0 82 -27.5t31 -74.5q0 -63 -40 -105.5 t-106 -42.5q-49 0 -80.5 31t-31.5 78z" />
<glyph unicode="&#xc9;" horiz-adv-x="1155" d="M-14 31l16 102q4 18 11 24.5t28 4.5h106l185 1063h-107q-20 -2 -25 4t-1 24l18 107q4 31 39 31h897q20 0 25.5 -6.5t1.5 -24.5l-47 -275q-2 -18 -10.5 -24t-28.5 -6h-111q-20 0 -25.5 6t-1.5 24l33 142h-424l-78 -436h396q20 0 25 -6.5t1 -24.5l-16 -98q-4 -31 -39 -31 h-393l-84 -469h469l18 141q4 20 10.5 26.5t26.5 6.5h111q20 0 25 -6t1 -25l-49 -274q-2 -18 -10 -24.5t-29 -6.5h-938q-20 0 -25 6t-1 25zM621 1528l127 201q16 29 49 28h166q31 0 6 -24l-178 -209q-20 -25 -54 -25h-104q-28 0 -12 29z" />
<glyph unicode="&#xcd;" horiz-adv-x="669" d="M-12 31l16 102q4 18 11.5 24.5t27.5 4.5h104l185 1063h-105q-20 -2 -25 4t-1 24l16 107q4 18 11.5 24.5t27.5 6.5h442q20 0 25.5 -6.5t1.5 -24.5l-16 -107q-4 -18 -11.5 -24t-27.5 -4h-107l-186 -1063h106q20 2 25.5 -4t1.5 -25l-16 -102q-4 -18 -11.5 -24.5t-27.5 -6.5 h-441q-20 0 -25 6t-1 25zM410 1528l127 201q16 29 49 28h166q31 0 6 -24l-178 -209q-23 -25 -54 -25h-104q-28 0 -12 29z" />
<glyph unicode="&#xd3;" horiz-adv-x="1445" d="M98 522q0 242 88 444.5t265.5 330.5t410.5 128q70 0 137.5 -14t140 -52t126 -97.5t88.5 -160t35 -229.5q0 -379 -212 -638t-571 -259q-240 0 -374 148.5t-134 398.5zM350 553q0 -164 68.5 -274.5t230.5 -110.5q111 0 197 46t138 116.5t87 165t47 182.5t12 178 q0 182 -73.5 285.5t-227.5 103.5q-94 0 -170.5 -31.5t-127 -88t-87 -124t-56 -148.5t-29 -153.5t-9.5 -146.5zM770 1528l127 201q16 29 49 28h166q31 0 6 -24l-178 -209q-23 -25 -53 -25h-105q-28 0 -12 29z" />
<glyph unicode="&#xd4;" horiz-adv-x="1445" d="M98 522q0 242 88 444.5t265.5 330.5t410.5 128q70 0 137.5 -14t140 -52t126 -97.5t88.5 -160t35 -229.5q0 -379 -212 -638t-571 -259q-240 0 -374 148.5t-134 398.5zM350 553q0 -164 68.5 -274.5t230.5 -110.5q111 0 197 46t138 116.5t87 165t47 182.5t12 178 q0 182 -73.5 285.5t-227.5 103.5q-94 0 -170.5 -31.5t-127 -88t-87 -124t-56 -148.5t-29 -153.5t-9.5 -146.5zM602 1524l207 219q23 25 53 24h156q31 0 45 -24l129 -219q16 -25 -16 -25h-107q-33 0 -47 25l-92 145l-137 -145q-23 -25 -54 -25h-129q-29 0 -8 25z" />
<glyph unicode="&#xda;" horiz-adv-x="1476" d="M170 348q0 68 16 162l125 715h-108q-20 -2 -25.5 4t-1.5 24l19 107q2 18 10 24.5t28 6.5h443q20 0 25.5 -6.5t0.5 -24.5l-18 -107q-4 -18 -11.5 -24t-27.5 -4h-104l-115 -643q-20 -113 -20 -187q0 -115 61 -175t219 -60q176 0 266 91t123 286l119 688h-109q-20 -2 -25 4 t-1 24l18 107q4 31 39 31h410q20 0 25 -6.5t1 -24.5l-18 -107q-4 -18 -11 -24t-28 -4h-104l-131 -740q-20 -113 -56.5 -197.5t-104 -159.5t-181 -114t-269.5 -39q-254 0 -366.5 93.5t-112.5 279.5zM823 1528l127 201q16 29 49 28h166q31 0 6 -24l-178 -209q-23 -25 -53 -25 h-104q-29 0 -13 29z" />
<glyph unicode="&#xdd;" horiz-adv-x="1359" d="M162 1253l20 107q2 18 10.5 24.5t28.5 6.5h484q20 0 25 -6.5t1 -24.5l-16 -107q-4 -18 -11.5 -24t-27.5 -4h-109l162 -488l346 488h-114q-20 -2 -25.5 4t-1.5 24l20 107q4 31 39 31h420q20 0 25.5 -6.5t1.5 -24.5l-19 -107q-4 -18 -11 -24t-28 -4h-104l-483 -672 l-68 -391h107q20 2 25 -4t1 -25l-16 -102q-4 -18 -11.5 -24.5t-27.5 -6.5h-443q-20 0 -25 6t-1 25l16 102q4 18 11.5 24.5t27.5 4.5h107l63 364l-256 699h-117q-20 -2 -25 4t-1 24zM727 1528l127 201q16 29 49 28h166q31 0 6 -24l-178 -209q-20 -25 -53 -25h-105 q-28 0 -12 29z" />
<glyph unicode="&#xe1;" horiz-adv-x="1210" d="M61 352q0 123 31 240t92.5 218t169 163.5t246.5 62.5q178 0 277 -125l14 72q2 18 10.5 24.5t28.5 6.5h143q20 0 25.5 -6.5t1.5 -24.5l-139 -784q-12 -57 40 -58q23 0 56 17q31 12 45 -15l18 -32q14 -27 -10 -48q-121 -88 -225 -88q-166 0 -160 166q-119 -166 -326 -166 q-162 0 -250 93.5t-88 283.5zM293 381q0 -115 46 -172t155 -57q88 0 169.5 59t98.5 162l69 381l-1 1q-73 107 -209 107q-92 0 -160 -46t-102.5 -122t-50 -153.5t-15.5 -159.5zM596 1196.5q-4 8.5 6 28.5l129 237q16 37 57 37h154q39 0 14 -35l-176 -241q-23 -35 -63 -35h-94 q-23 0 -27 8.5z" />
<glyph unicode="&#xe4;" horiz-adv-x="1210" d="M61 352q0 123 31 240t92.5 218t169 163.5t246.5 62.5q178 0 277 -125l14 72q2 18 10.5 24.5t28.5 6.5h143q20 0 25.5 -6.5t1.5 -24.5l-139 -784q-2 -11 -2 -19q0 -38 42 -39q23 0 56 17q31 12 45 -15l18 -32q5 -10 5 -19q0 -16 -15 -29q-121 -88 -225 -88 q-160 0 -160 155v11q-119 -166 -326 -166q-162 0 -250 93.5t-88 283.5zM293 381q0 -115 46 -172t155 -57q88 0 169.5 59t98.5 162l69 381l-1 1q-73 107 -209 107q-92 0 -160 -46t-102.5 -122t-50 -153.5t-15.5 -159.5zM383 1325q0 63 39 102t106 39q51 0 82 -27.5t31 -74.5 q0 -63 -39.5 -105t-105.5 -42q-49 0 -81 30.5t-32 77.5zM799 1325q0 63 40 102t105 39q51 0 82 -27.5t31 -74.5q0 -63 -40 -105t-106 -42q-49 0 -80.5 30.5t-31.5 77.5z" />
<glyph unicode="&#xe9;" horiz-adv-x="968" d="M51 379q0 121 36 235.5t102.5 210t178 153.5t248.5 58q156 0 238 -74.5t82 -197.5q-2 -184 -151.5 -268t-362.5 -84q-49 0 -131 8q-2 -16 -2 -45q0 -102 56 -165t171 -63q131 0 248 70q29 14 43 -12l35 -64q17 -27 -8 -47q-164 -119 -377 -119q-209 0 -307.5 107.5 t-98.5 296.5zM307 571q41 -8 78 -8q129 0 222 47t93 144q0 51 -36 78.5t-95 27.5q-106 0 -173.5 -82t-88.5 -207zM520 1196.5q-4 8.5 6 28.5l129 237q16 37 58 37h153q39 0 15 -35l-176 -241q-23 -35 -64 -35h-94q-23 0 -27 8.5z" />
<glyph unicode="&#xed;" horiz-adv-x="604" d="M113 168l116 680h-88q-20 -2 -25 4t-1 25l20 106q4 31 39 31h285q20 0 25 -6.5t1 -24.5l-139 -780q-12 -63 33 -64q25 0 61 17q31 12 43 -15l17 -32q14 -27 -11 -48q-111 -88 -223 -88q-186 0 -153 195zM303 1196.5q-4 8.5 6 28.5l129 237q16 37 58 37h153q39 0 15 -35 l-177 -241q-23 -35 -63 -35h-94q-23 0 -27 8.5z" />
<glyph unicode="&#xf3;" horiz-adv-x="1105" d="M51 383q0 287 151.5 470t426.5 183q53 0 102 -8t106.5 -34.5t99.5 -69.5t70.5 -119t28.5 -174q0 -297 -158.5 -476.5t-439.5 -179.5q-184 0 -285.5 104.5t-101.5 303.5zM289 383q0 -238 184 -238q90 0 156.5 49.5t100.5 128t49.5 154.5t15.5 150q0 231 -201 231 q-90 0 -154.5 -47t-95.5 -125t-43 -151.5t-12 -151.5zM559 1196.5q-4 8.5 6 28.5l129 237q16 37 58 37h153q39 0 15 -35l-177 -241q-23 -35 -63 -35h-94q-23 0 -27 8.5z" />
<glyph unicode="&#xf4;" horiz-adv-x="1105" d="M51 383q0 287 151.5 470t426.5 183q53 0 102 -8t106.5 -34.5t99.5 -69.5t70.5 -119t28.5 -174q0 -297 -158.5 -476.5t-439.5 -179.5q-184 0 -285.5 104.5t-101.5 303.5zM289 383q0 -238 184 -238q90 0 156.5 49.5t100.5 128t49.5 154.5t15.5 150q0 231 -201 231 q-90 0 -154.5 -47t-95.5 -125t-43 -151.5t-12 -151.5zM361 1214l219 277q25 27 53 27h156q29 0 41 -27l125 -277q12 -27 -21 -26h-110q-31 0 -43 24l-88 174l-140 -172q-24 -26 -53 -26h-131q-33 0 -8 26z" />
<glyph unicode="&#xfa;" horiz-adv-x="1236" d="M123 879l18 104q2 18 10.5 24.5t28.5 6.5h283q20 0 25.5 -6.5t0.5 -24.5l-102 -571q-12 -74 -14 -129.5t32.5 -87t112.5 -31.5q94 0 173 61.5t93 139.5l111 618q2 18 10.5 24.5t28.5 6.5h164q20 0 25 -6.5t1 -24.5l-139 -784q-12 -57 39 -58q23 0 55 17q31 12 45 -15 l19 -32q14 -27 -10 -48q-121 -88 -226 -88q-164 0 -159 156q-131 -156 -349 -156q-319 0 -258 349l95 528l-86 -2q-20 -2 -25.5 4t-1.5 25zM606 1196.5q-4 8.5 6 28.5l129 237q16 37 58 37h153q39 0 15 -35l-176 -241q-23 -35 -64 -35h-94q-23 0 -27 8.5z" />
<glyph unicode="&#xfd;" horiz-adv-x="1218" d="M72 -375l43 96q8 18 16 21.5t25 -4.5q127 -57 256 -57q252 0 299 270l32 180q-141 -156 -337 -156q-133 0 -204 64.5t-71 189.5q0 47 8 95l94 528l-86 -2q-20 -2 -25 4t-1 25l16 104q4 18 11.5 24.5t27.5 6.5h283q20 0 25 -6.5t1 -24.5l-100 -571q-14 -76 -14 -119 q0 -63 32.5 -96t112.5 -33q94 0 173 61.5t93 139.5l109 618q2 18 10 24.5t29 6.5h164q20 0 25 -6q3 -4 3 -11q0 -6 -2 -14l-143 -813q-25 -166 -57 -291q-47 -180 -165 -275.5t-331 -95.5q-184 0 -336 74q-20 8 -20 26q0 7 4 17zM606 1196.5q-4 8.5 6 28.5l129 237 q16 37 58 37h153q39 0 15 -35l-177 -241q-23 -35 -63 -35h-94q-23 0 -27 8.5z" />
<glyph unicode="&#x10c;" horiz-adv-x="1294" d="M102 557q0 156 49.5 306.5t141.5 277.5t246.5 205.5t347.5 78.5q223 0 411 -106q29 -14 21 -47l-45 -256q-4 -31 -39 -31h-111q-20 0 -25 6t-1 25l32 145q-106 84 -270 84q-137 0 -239.5 -58.5t-158.5 -158.5t-82 -211.5t-26 -238.5q0 -195 90.5 -308.5t282.5 -113.5 q168 0 238 59l18 133q4 20 10 26.5t27 6.5h113q20 0 25 -6t1 -25l-45 -256q-8 -33 -35 -45q-166 -74 -385 -74q-299 0 -445.5 154t-146.5 428zM659 1743q-16 25 17 24h108q33 0 47 -24l93 -146l143 146q22 24 53 24h121q29 0 8 -24l-207 -219q-23 -25 -53 -25h-155 q-31 0 -46 25z" />
<glyph unicode="&#x10d;" horiz-adv-x="966" d="M53 395q0 258 147.5 449.5t420.5 191.5q180 0 260 -97q69 -83 68 -211q0 -21 -1 -42q-2 -33 -35 -33h-110q-18 0 -24.5 6.5t-6.5 26.5v14q0 81 -42 119q-46 41 -134 41q-113 0 -184.5 -75.5t-96 -173t-24.5 -210.5q0 -254 241 -254q109 0 232 70q27 16 43 -12l33 -66 q18 -27 -11 -45q-168 -119 -383 -119q-197 0 -295 114t-98 306zM416 1491q-12 27 20 27h113q31 0 43 -25l88 -174l139 172q24 27 53 27h129q33 0 9 -27l-220 -277q-25 -27 -53 -26h-155q-29 0 -41 26z" />
<glyph unicode="&#x10e;" horiz-adv-x="1404" d="M125 31l205 1194h-105q-20 -2 -25 4t-1 24l18 107q4 31 39 33q389 10 453 10q113 0 214 -24.5t201.5 -81t161 -170t60.5 -271.5q0 -391 -236 -623.5t-674 -232.5h-284q-20 0 -25.5 6t-1.5 25zM377 162h135q152 0 267.5 55t182 149.5t99.5 208t33 242.5 q0 217 -100.5 316.5t-299.5 99.5h-131zM524 1743q-16 25 17 24h108q33 0 47 -24l92 -146l144 146q22 24 53 24h121q29 0 8 -24l-207 -219q-23 -25 -53 -25h-156q-31 0 -45 25z" />
<glyph unicode="&#x10f;" horiz-adv-x="1275" d="M51 362q0 96 18.5 189.5t60.5 182.5t103.5 155.5t153.5 106.5t205 40q96 0 165.5 -36.5t96.5 -77.5l76 442h-88q-20 -2 -25.5 4t-1.5 25l19 104q2 18 10 24.5t28 6.5h283q20 0 25.5 -6t1.5 -25l-232 -1298q-12 -57 39 -58q23 0 55 17q31 12 46 -15l18 -32q14 -27 -10 -48 q-121 -88 -226 -88q-90 0 -124.5 42t-34.5 124q-117 -166 -324 -166q-162 0 -250 96.5t-88 290.5zM283 391q0 -121 45.5 -180t156.5 -59q88 0 169 58t98 161l69 383l-1 1q-73 107 -210 107q-92 0 -159.5 -45t-102.5 -119.5t-50 -150.5t-15 -156zM1241 1108q-6 -31 25 -31h71 q33 0 43 31l133 389q8 31 -20 31h-147q-31 0 -37 -31z" />
<glyph unicode="&#x139;" horiz-adv-x="1075" d="M-14 31l16 102q4 18 11 24.5t28 4.5h106l185 1063h-107q-20 -2 -25 4t-1 24l18 107q4 31 39 31h442q20 0 25.5 -6.5t1.5 -24.5l-18 -107q-4 -18 -11.5 -24t-27.5 -4h-105l-186 -1061h424l20 141q4 18 10.5 24.5t26.5 6.5h111q20 0 25 -6t1 -25l-67 -383 q-2 -18 -10.5 -24.5t-28.5 -6.5h-111q-20 0 -24 6.5t0 24.5l20 78h-762q-20 0 -25 6t-1 25zM401 1528l127 201q16 29 50 28h165q31 0 7 -24l-179 -209q-23 -25 -53 -25h-104q-29 0 -13 29z" />
<glyph unicode="&#x13a;" horiz-adv-x="595" d="M111 168l208 1196h-88q-20 -2 -25 4t-1 25l18 104q2 18 10.5 24.5t28.5 6.5h285q20 0 25.5 -6t0.5 -25l-231 -1294q-12 -63 35 -64q25 0 61 17q31 12 43 -15l17 -32q14 -27 -11 -48q-111 -88 -223 -88q-186 0 -153 195zM344 1626l127 201q16 29 49 28h166q31 0 6 -24 l-178 -209q-23 -25 -53 -25h-105q-28 0 -12 29z" />
<glyph unicode="&#x13d;" horiz-adv-x="1075" d="M-14 31l16 102q4 18 11 24.5t28 4.5h106l185 1063h-107q-20 -2 -25 4t-1 24l18 107q4 31 39 31h442q20 0 25.5 -6.5t1.5 -24.5l-18 -107q-4 -18 -11.5 -24t-27.5 -4h-105l-186 -1061h424l20 141q4 18 10.5 24.5t26.5 6.5h111q20 0 25 -6t1 -25l-67 -383 q-2 -18 -10.5 -24.5t-28.5 -6.5h-111q-20 0 -24 6.5t0 24.5l20 78h-762q-20 0 -25 6t-1 25zM829 971q-6 -31 25 -31h72q33 0 43 31l133 389q8 31 -21 31h-147q-31 0 -37 -31z" />
<glyph unicode="&#x13e;" horiz-adv-x="659" d="M111 168l208 1196h-88q-20 -2 -25 4t-1 25l18 104q2 18 10.5 24.5t28.5 6.5h285q20 0 25.5 -6t0.5 -25l-231 -1294q-12 -63 35 -64q25 0 61 17q31 12 43 -15l17 -32q14 -27 -11 -48q-111 -88 -223 -88q-186 0 -153 195zM625 1108q-6 -31 24 -31h72q33 0 43 31l133 389 q8 31 -20 31h-148q-31 0 -37 -31z" />
<glyph unicode="&#x147;" horiz-adv-x="1521" d="M-14 31l18 102q4 18 11.5 24.5t27.5 4.5h107l182 1063h-107q-20 -2 -25 4t-1 24l18 107q4 31 39 31h291q31 0 47 -29l500 -1032l163 895h-102q-20 -2 -25.5 4t-1.5 24l17 107q4 18 11 24.5t28 6.5h385q20 0 25 -6.5t1 -24.5l-16 -107q-4 -18 -11.5 -24t-27.5 -4h-104 l-211 -1194q-4 -31 -39 -31h-146q-31 0 -47 29l-510 1034l-157 -901h166q20 2 25 -4t1 -25l-16 -102q-4 -18 -11.5 -24.5t-27.5 -6.5h-451q-20 0 -25 6t-1 25zM672 1743q-16 25 16 24h109q33 0 47 -24l92 -146l143 146q23 24 54 24h120q29 0 9 -24l-207 -219 q-23 -25 -54 -25h-155q-31 0 -45 25z" />
<glyph unicode="&#x148;" horiz-adv-x="1226" d="M90 31l143 819h-88q-20 -2 -25 4t-1 25l16 104q4 18 11.5 24.5t27.5 6.5h258q20 0 25.5 -6.5t1.5 -24.5l-19 -119q145 172 365 172q129 0 201.5 -66.5t72.5 -189.5q0 -55 -16 -129l-94 -448q-3 -14 -3 -25q0 -38 33 -39q25 0 62 17q31 12 43 -15l16 -32q5 -10 5 -19 q0 -16 -15 -29q-111 -88 -223 -88q-161 0 -161 135q0 27 7 60l88 426q14 76 15 117q0 66 -31 98.5t-107 32.5q-102 0 -181 -57.5t-93 -141.5l-107 -612q-2 -18 -10 -24.5t-28 -6.5h-162q-19 0 -25 6q-3 4 -4 12q0 5 2 13zM486 1491q-12 27 20 27h113q31 0 43 -25l88 -174 l139 172q24 27 53 27h129q33 0 9 -27l-220 -277q-25 -27 -53 -26h-155q-29 0 -41 26z" />
<glyph unicode="&#x154;" horiz-adv-x="1277" d="M-12 31l16 102q4 18 11.5 24.5t27.5 4.5h104l185 1063h-105q-20 -2 -25 4t-1 24l18 107q4 31 39 33q389 10 436 10q231 0 352 -87t121 -245q0 -285 -327 -420l153 -456q25 -72 74 -72q27 0 66 16q31 12 43 -16l16 -35q12 -29 -14 -45q-96 -68 -205 -68q-88 0 -131 40 t-74 126l-158 457h-41q-66 0 -114 6l-78 -442h127q20 2 25.5 -4t0.5 -25l-16 -102q-4 -18 -11.5 -24.5t-27.5 -6.5h-461q-20 0 -25 6t-1 25zM477 741q16 -2 64 -2q170 0 278.5 75t108.5 224q0 195 -289 195h-74zM575 1528l127 201q16 29 50 28h166q31 0 6 -24l-179 -209 q-20 -25 -53 -25h-104q-29 0 -13 29z" />
<glyph unicode="&#x155;" horiz-adv-x="913" d="M90 31l141 817h-88q-20 -2 -25 4t-1 25l18 106q4 31 39 31h260q20 0 25.5 -6.5t1.5 -24.5l-29 -168q129 221 342 221q53 0 109 -12q18 -6 23 -14q3 -5 3 -13q0 -6 -2 -14l-47 -270q-4 -31 -39 -31h-116q-20 0 -25.5 6t-1.5 25l18 108q-29 4 -41 4q-199 0 -247 -278 l-91 -516q-2 -18 -10 -24.5t-28 -6.5h-162q-19 0 -25 6q-3 3 -4 11q0 6 2 14zM481 1196.5q-4 8.5 6 28.5l129 237q16 37 58 37h153q39 0 15 -35l-177 -241q-23 -35 -63 -35h-94q-23 0 -27 8.5z" />
<glyph unicode="&#x160;" horiz-adv-x="1058" d="M18 66l54 325q4 18 11 24.5t28 6.5h110q20 0 25.5 -6t1.5 -25l-43 -188q78 -51 219 -51q303 0 303 225q0 51 -17.5 91t-60.5 71.5t-74.5 50t-97.5 49.5q-74 35 -109.5 55.5t-88 63.5t-75 100t-22.5 135q0 184 136.5 308t383.5 124q158 0 314 -45q33 -10 24 -41l-49 -280 q-4 -31 -39 -31h-110q-20 0 -24.5 6t-0.5 25l33 139q-80 49 -191 49q-123 0 -189.5 -51t-66.5 -137q0 -23 3.5 -41.5t13.5 -35.5t16 -29.5t25.5 -29t28 -23.5t36 -22.5t35.5 -19.5t42 -21.5t40 -21.5q55 -27 85 -44t78 -54t74.5 -73t47 -93t20.5 -123q0 -209 -148.5 -331 t-396.5 -122q-203 0 -360 50q-33 10 -25 41zM459 1743q-16 25 16 24h109q33 0 47 -24l92 -146l143 146q23 24 54 24h120q29 0 9 -24l-207 -219q-23 -25 -54 -25h-155q-31 0 -45 25z" />
<glyph unicode="&#x161;" horiz-adv-x="942" d="M31 266q0 20 6 26.5t24 6.5h115q20 0 26.5 -6t10.5 -27q8 -70 51.5 -103.5t145.5 -33.5q188 0 188 133q0 59 -43 89t-139 61q-59 18 -83 27.5t-73 35t-70.5 52t-41 73.5t-19.5 107q0 156 112.5 242.5t293.5 86.5q174 0 260 -80q78 -72 78 -186q0 -12 -1 -25q0 -20 -6 -26 t-26 -6h-117q-20 0 -26.5 6t-6.5 26q-2 66 -42 100t-134 34q-168 0 -168 -121q0 -53 45 -83t144 -65q66 -23 104.5 -41t86.5 -52t71.5 -85t23.5 -119q0 -166 -117.5 -252t-310.5 -86q-166 0 -263 70t-99 221zM324 1491q-12 27 20 27h113q31 0 43 -25l88 -174l139 172 q24 27 53 27h129q33 0 9 -27l-220 -277q-25 -27 -53 -26h-155q-29 0 -41 26z" />
<glyph unicode="&#x164;" horiz-adv-x="1214" d="M129 1087l47 273q4 31 39 31h1067q20 0 25.5 -6.5t1.5 -24.5l-47 -273q-4 -31 -39 -30h-121q-20 0 -24.5 6t-0.5 24l33 140h-272l-191 -1065h168q20 2 25.5 -4.5t3.5 -24.5l-19 -102q-4 -18 -10 -24.5t-27 -6.5h-565q-20 0 -25 6t-3 25l18 102q4 18 10 24.5t27 4.5h166 l188 1065h-274l-17 -137q-4 -20 -10 -26.5t-27 -6.5h-120q-20 0 -25.5 6t-1.5 24zM506 1743q-14 25 16 24h109q33 0 47 -24l92 -146l143 146q21 24 54 24h120q31 0 9 -24l-207 -219q-20 -25 -53 -25h-156q-29 0 -45 25z" />
<glyph unicode="&#x165;" horiz-adv-x="741" d="M104 874l17 109q4 18 11 24.5t28 6.5h114l48 276q4 18 11 24.5t27 6.5h164q20 0 25.5 -6t1.5 -25l-47 -276h205q20 0 25 -6.5t1 -24.5l-18 -109q-4 -18 -11.5 -24t-27.5 -4h-205l-86 -481q-12 -70 -12 -119q0 -55 21.5 -81t74.5 -26q66 0 123 23q29 10 41 -19l18 -69 q10 -31 -18 -43q-123 -55 -250 -56q-141 0 -195.5 55.5t-54.5 153.5q0 57 21 168l90 494h-115q-20 -2 -25.5 4t-1.5 24zM655 1145l68 389q6 31 37 31h147q29 0 21 -31l-133 -389q-10 -31 -43 -31h-72q-31 0 -25 31z" />
<glyph unicode="&#x17d;" horiz-adv-x="1204" d="M-33 31l13 82q4 27 26 55l932 1063h-547l-20 -162q-4 -20 -10.5 -26.5t-26.5 -6.5h-121q-20 0 -25.5 6.5t-1.5 24.5l47 293q4 18 11.5 24.5t27.5 6.5h963q20 0 25.5 -6.5t1.5 -24.5l-13 -76q-4 -27 -26 -55l-942 -1069h608l16 164q4 20 10.5 26t26.5 6h117q20 0 25.5 -6 t0.5 -24l-69 -404q-4 -31 -39 -31h-111q-20 0 -24 6.5t0 24.5l20 78h-868q-20 0 -25.5 6t-1.5 25zM504 1743q-16 25 16 24h109q33 0 47 -24l92 -146l143 146q23 24 54 24h120q29 0 9 -24l-207 -219q-23 -25 -53 -25h-156q-31 0 -45 25z" />
<glyph unicode="&#x17e;" horiz-adv-x="952" d="M-6 31l14 78q2 27 25 55l622 706h-323l-19 -129q-4 -18 -10 -24t-27 -6h-108q-20 0 -25.5 6t-1.5 24l41 242q2 18 10.5 24.5t28.5 6.5h699q20 0 25 -6q3 -4 3 -11q0 -6 -2 -14l-12 -74q-4 -27 -27 -55l-631 -713h359l20 148q4 20 10.5 26.5t26.5 6.5h111q20 0 25.5 -6.5 t0.5 -24.5l-43 -260q-4 -18 -11 -24.5t-27 -6.5h-725q-19 0 -25 6q-4 4 -5 16q0 4 1 9zM342 1491q-12 27 20 27h113q31 0 43 -25l88 -174l139 172q24 27 53 27h129q33 0 9 -27l-220 -277q-25 -27 -53 -26h-155q-29 0 -41 26z" />
<glyph unicode="&#x2c6;" d="M461 1214l219 277q25 27 53 27h156q29 0 41 -27l125 -277q12 -27 -21 -26h-110q-31 0 -43 24l-88 174l-140 -172q-24 -26 -53 -26h-131q-33 0 -8 26z" />
<glyph unicode="&#x2c7;" horiz-adv-x="1064" d="M498 1491q-12 27 20 27h113q31 0 43 -25l88 -174l139 172q24 27 53 27h129q33 0 9 -27l-220 -277q-25 -27 -53 -26h-155q-29 0 -41 26z" />
<glyph unicode="&#x2da;" d="M307 1364q0 86 58.5 145.5t146.5 59.5q92 0 147.5 -57.5t55.5 -137.5q0 -94 -57.5 -155.5t-149.5 -61.5q-94 0 -147.5 59.5t-53.5 147.5zM426 1364q0 -43 22.5 -71.5t63.5 -28.5t64.5 28.5t23.5 71.5q0 45 -23.5 71.5t-64.5 26.5q-86 0 -86 -98z" />
<glyph unicode="&#x2dc;" d="M399 1266q18 109 72 150.5t113 41.5q55 0 182 -42t174 -42q33 0 50.5 10.5t23.5 45.5q4 27 35 26h55q25 0 20 -29q-29 -203 -192 -202q-68 0 -197 40t-160 40q-55 0 -65 -48q-2 -14 -6 -17t-21 -3h-63q-27 0 -21 29z" />
<glyph unicode="&#x2000;" horiz-adv-x="927" />
<glyph unicode="&#x2001;" horiz-adv-x="1855" />
<glyph unicode="&#x2002;" horiz-adv-x="927" />
<glyph unicode="&#x2003;" horiz-adv-x="1855" />
<glyph unicode="&#x2004;" horiz-adv-x="618" />
<glyph unicode="&#x2005;" horiz-adv-x="463" />
<glyph unicode="&#x2006;" horiz-adv-x="309" />
<glyph unicode="&#x2007;" horiz-adv-x="309" />
<glyph unicode="&#x2008;" horiz-adv-x="231" />
<glyph unicode="&#x2009;" horiz-adv-x="371" />
<glyph unicode="&#x200a;" horiz-adv-x="103" />
<glyph unicode="&#x2010;" horiz-adv-x="577" d="M61 477l23 137q2 18 10 24.5t29 6.5h389q20 0 25.5 -6t1.5 -25l-25 -137q-2 -18 -10.5 -24.5t-28.5 -6.5h-387q-20 0 -25.5 6.5t-1.5 24.5z" />
<glyph unicode="&#x2011;" horiz-adv-x="577" d="M61 477l23 137q2 18 10 24.5t29 6.5h389q20 0 25.5 -6t1.5 -25l-25 -137q-2 -18 -10.5 -24.5t-28.5 -6.5h-387q-20 0 -25.5 6.5t-1.5 24.5z" />
<glyph unicode="&#x2012;" horiz-adv-x="577" d="M61 477l23 137q2 18 10 24.5t29 6.5h389q20 0 25.5 -6t1.5 -25l-25 -137q-2 -18 -10.5 -24.5t-28.5 -6.5h-387q-20 0 -25.5 6.5t-1.5 24.5z" />
<glyph unicode="&#x2013;" d="M-8 539l16 96q4 31 39 31h959q20 0 25 -6.5t1 -24.5l-16 -96q-4 -31 -39 -31h-959q-20 0 -25 6t-1 25z" />
<glyph unicode="&#x2014;" horiz-adv-x="2048" d="M12 539l17 96q4 31 39 31h1931q20 0 25.5 -6.5t0.5 -24.5l-16 -96q-2 -18 -10.5 -24.5t-28.5 -6.5h-1931q-20 0 -25.5 6t-1.5 25z" />
<glyph unicode="&#x2018;" horiz-adv-x="520" d="M246 1153q0 18 2 33.5t9 33t11 26.5t18.5 28.5t17.5 25t23.5 29t22.5 27.5l131 162q20 27 49 10l9 -6q29 -16 14 -43l-94 -185q41 -72 41 -118q0 -57 -37 -98.5t-94 -41.5q-55 0 -89 34t-34 83z" />
<glyph unicode="&#x2019;" horiz-adv-x="520" d="M240 1100l94 184q-41 72 -41 119q0 57 38 98t101 41q51 0 83 -31.5t32 -78.5q0 -41 -17.5 -81t-33 -59.5t-54.5 -68.5l-131 -162q-20 -27 -49 -10l-8 6q-29 16 -14 43z" />
<glyph unicode="&#x201a;" horiz-adv-x="520" d="M4 -254l94 184q-41 72 -41 119q0 57 38 98t102 41q51 0 82.5 -31.5t31.5 -78.5q0 -41 -17.5 -81t-32.5 -59.5t-54 -68.5l-131 -162q-20 -27 -49 -10l-9 6q-29 16 -14 43z" />
<glyph unicode="&#x201c;" horiz-adv-x="827" d="M246 1153q0 18 2 33.5t9 33t11 26.5t18.5 28.5t17.5 25t23.5 29t22.5 27.5l131 162q20 27 49 10l9 -6q29 -16 14 -43l-94 -185q41 -72 41 -118q0 -57 -37 -98.5t-94 -41.5q-55 0 -89 34t-34 83zM553 1153q0 18 2 33.5t9 33t11.5 26.5t18.5 28.5t17 25t23.5 29t22.5 27.5 l131 162q20 27 50 10l8 -6q29 -16 14 -43l-94 -185q41 -72 41 -118q0 -57 -37 -98.5t-94 -41.5q-55 0 -89 34t-34 83z" />
<glyph unicode="&#x201d;" horiz-adv-x="827" d="M240 1100l94 184q-41 72 -41 119q0 57 38 98t101 41q51 0 83 -31.5t32 -78.5q0 -41 -17.5 -81t-33 -59.5t-54.5 -68.5l-131 -162q-20 -27 -49 -10l-8 6q-29 16 -14 43zM547 1100l94 184q-41 72 -41 119q0 57 38 98t101 41q51 0 83 -31.5t32 -78.5q0 -41 -17.5 -81 t-32.5 -59.5t-54 -68.5l-132 -162q-20 -27 -49 -10l-8 6q-29 16 -14 43z" />
<glyph unicode="&#x201e;" horiz-adv-x="827" d="M4 -254l94 184q-41 72 -41 119q0 57 38 98t102 41q51 0 82.5 -31.5t31.5 -78.5q0 -41 -17.5 -81t-32.5 -59.5t-54 -68.5l-131 -162q-20 -27 -49 -10l-9 6q-29 16 -14 43zM311 -254l95 184q-41 72 -41 119q0 57 37.5 98t101.5 41q51 0 82.5 -31.5t31.5 -78.5 q0 -41 -17 -81t-32.5 -59.5t-54.5 -68.5l-131 -162q-20 -27 -49 -10l-8 6q-29 16 -15 43z" />
<glyph unicode="&#x2026;" horiz-adv-x="1579" d="M61 82q0 72 49.5 117t125.5 45q61 0 99 -35t38 -86q0 -72 -50 -117t-128 -45q-61 0 -97.5 35t-36.5 86zM571 82q0 72 49.5 117t124.5 45q61 0 99.5 -35t38.5 -86q0 -72 -50 -117t-128 -45q-61 0 -97.5 35t-36.5 86zM1094 82q0 72 49 117t125 45q61 0 99 -35t38 -86 q0 -72 -50 -117t-128 -45q-61 0 -97 35t-36 86z" />
<glyph unicode="&#x202f;" horiz-adv-x="371" />
<glyph unicode="&#x2039;" horiz-adv-x="669" d="M164 557q-10 29 8 57l254 367q16 27 51 27h131q35 0 15 -27l-265 -391l121 -387q6 -18 1 -24.5t-23 -6.5h-135q-33 0 -43 31z" />
<glyph unicode="&#x203a;" horiz-adv-x="669" d="M80 199l268 393l-125 385q-6 18 -1 24.5t24 6.5h135q33 0 43 -31l115 -354q10 -29 -9 -58l-254 -366q-16 -27 -51 -27h-131q-35 0 -14 27z" />
<glyph unicode="&#x205f;" horiz-adv-x="463" />
<glyph unicode="&#x20ac;" horiz-adv-x="1079" d="M12 403l15 48q8 31 41 30h94q2 35 14 80h-88q-18 0 -23 6.5t1 24.5l12 47q10 31 43 31h80q55 209 208.5 313t329.5 104q188 0 328 -79q27 -14 23 -47l-33 -193q-4 -18 -11.5 -24.5t-27.5 -6.5h-100q-20 0 -24.5 6.5t-0.5 24.5l27 111q-25 25 -84.5 45t-120.5 20 q-240 0 -309 -274h401q18 0 23.5 -6.5t-1.5 -24.5l-16 -47q-10 -31 -43 -31h-389q-8 -33 -12 -80h374q18 0 23.5 -6t-0.5 -24l-14 -48q-10 -31 -43 -30h-347q10 -248 254 -248q104 0 175 39l10 115q4 20 10 26t27 6h104q20 0 25.5 -6t1.5 -24l-31 -191q-8 -33 -35 -45 q-154 -70 -321 -70q-213 0 -316.5 120t-109.5 278h-119q-18 0 -23.5 6t-1.5 24z" />
<glyph unicode="&#x2122;" horiz-adv-x="1728" d="M227 1247v113q0 31 31 31h498q31 0 30 -31v-113q0 -31 -30 -30h-29q-31 0 -29 30l4 70h-131v-524h66q31 0 31 -31v-27q0 -30 -31 -30h-256q-31 0 -31 30v27q0 31 31 31h63v524h-129l4 -70q2 -31 -28 -30h-33q-31 0 -31 30zM836 735v25q0 31 30 31h37v514h-37 q-31 0 -30 30v25q0 31 30 31h154q33 0 41 -29l196 -520l203 520q8 29 41 29h137q31 0 31 -31v-25q0 -31 -31 -30h-34v-514h34q31 0 31 -31v-25q0 -31 -31 -30h-196q-31 0 -31 30v27q0 31 31 31h41v409l-180 -469q-8 -28 -41 -28h-41q-33 0 -41 28l-189 488v-428h58 q31 0 30 -31v-27q0 -31 -30 -30h-183q-31 0 -30 30z" />
<glyph unicode="&#xe000;" horiz-adv-x="1035" d="M0 1035h1035v-1035h-1035v1035z" />
</font>
</defs>
</svg>
