<?xml version="1.0" standalone="no"?>
<!DOCTYPE svg PUBLIC "-//W3C//DTD SVG 1.1//EN" "http://www.w3.org/Graphics/SVG/1.1/DTD/svg11.dtd" >
<svg xmlns="http://www.w3.org/2000/svg">
<metadata>
This is a custom SVG webfont generated by Font Squirrel.
Copyright   : Copyright c 2011 TypeTogether wwwtypetogethercom with Reserved Font Names Crete and Crete Round
Designer    : Veronika Burian
Foundry     : TypeTogether
Foundry URL : wwwtypetogethercomCrete
</metadata>
<defs>
<font id="CreteRoundRegular" horiz-adv-x="1024" >
<font-face units-per-em="2048" ascent="1638" descent="-410" />
<missing-glyph horiz-adv-x="409" />
<glyph unicode=" "  horiz-adv-x="409" />
<glyph unicode="&#x09;" horiz-adv-x="409" />
<glyph unicode="&#xa0;" horiz-adv-x="409" />
<glyph unicode="!" horiz-adv-x="518" d="M119 92q0 53 39 90t98 37q63 0 101 -34.5t38 -90t-35.5 -92.5t-101.5 -37q-63 0 -101 36t-38 91zM147 1044v306q0 23 8.5 31t30.5 8h144q23 0 31 -8.5t8 -30.5v-310l-45 -682q-2 -23 -10 -31t-31 -8h-50q-23 0 -30.5 8.5t-9.5 30.5z" />
<glyph unicode="&#x22;" horiz-adv-x="765" d="M123 1223v129q0 23 8 31t31 8h131q23 0 31 -8.5t8 -30.5v-133q0 -41 -6 -78l-25 -166q-2 -25 -11 -32t-34 -7h-57q-25 0 -34 7t-11 32l-25 170q-6 35 -6 78zM434 1223v129q0 23 8.5 31t30.5 8h131q23 0 31 -8.5t8 -30.5v-133q0 -41 -6 -78l-25 -166q-2 -25 -11 -32 t-34 -7h-57q-25 0 -34 7t-11 32l-25 170q-6 35 -6 78z" />
<glyph unicode="#" horiz-adv-x="1153" d="M82 385v4q0 20 6 27.5t29 7.5h211l47 252h-211q-20 0 -27.5 6t-7.5 29v4q0 23 7 29t28 6h225l57 303q2 20 11.5 27t31.5 7h5q35 0 28 -34l-57 -303h270l53 303q2 20 11.5 27t31.5 7h5q35 0 28 -34l-53 -303h225q20 0 27.5 -6.5t7.5 -28.5v-4q0 -23 -7 -29t-28 -6h-239 l-43 -252h235q23 0 29 -7t6 -28v-4q0 -20 -6 -27.5t-29 -7.5h-250l-61 -350q-2 -20 -10.5 -27.5t-30.5 -7.5h-4q-20 0 -27.5 7.5t-3.5 27.5l62 350h-273l-65 -350q-2 -20 -10.5 -27.5t-30.5 -7.5h-4q-20 0 -27.5 7.5t-3.5 27.5l65 350h-198q-23 0 -29 7.5t-6 27.5zM403 424 h275l43 252h-270z" />
<glyph unicode="$" horiz-adv-x="882" d="M63 51v217q0 23 8.5 31t30.5 8h99q23 0 31 -8t6 -31l-7 -110q31 -25 103 -35l41 311q-57 20 -87 32.5t-77 40.5t-71.5 57.5t-44 76.5t-19.5 107q0 145 105.5 239t283.5 100l12 95q4 23 13.5 31t31.5 8h8q23 0 30 -8.5t3 -30.5l-12 -97q76 -4 180 -30q23 -6 30 -15.5 t7 -31.5v-217q0 -23 -8 -31t-31 -8h-98q-23 0 -30 8t-5 31l10 108q-43 20 -78 27l-36 -285q57 -23 74.5 -30t68.5 -31.5t72.5 -46t52.5 -56.5t43 -80t12 -100q0 -150 -111.5 -240t-304.5 -92l-16 -127q-4 -23 -13 -31t-32 -8h-8q-23 0 -30 8.5t-5 30.5l18 131 q-106 6 -213 35q-23 6 -30 15.5t-7 31.5zM289 807q0 -49 28.5 -80t92.5 -61l32 264q-154 -10 -153 -123zM420 117q174 4 174 133q0 55 -33 89t-104 64z" />
<glyph unicode="%" horiz-adv-x="1703" d="M82 967q0 182 100.5 280.5t237.5 98.5q145 0 235 -95.5t90 -279.5q0 -180 -93 -283.5t-236 -103.5q-147 0 -240.5 103.5t-93.5 279.5zM262 958q0 -121 37 -178t117 -57q152 0 151 244q0 129 -34.5 186t-114.5 57t-118 -59.5t-38 -192.5zM455 0l628 1307q10 23 20.5 28.5 t35.5 5.5h82q38 1 22 -34l-631 -1307q-10 -23 -20 -29t-35 -6h-80q-39 0 -22 35zM958 348q0 182 100.5 280.5t237.5 98.5q145 0 235.5 -95t90.5 -280q0 -180 -93 -283.5t-237 -103.5q-147 0 -240.5 103.5t-93.5 279.5zM1139 340q0 -236 153 -236q78 0 115 58.5t37 185.5 q0 129 -35 186.5t-115 57.5t-117.5 -59.5t-37.5 -192.5z" />
<glyph unicode="&#x26;" horiz-adv-x="1325" d="M164 360q0 150 82 250.5t198 126.5q-248 90 -247 316q0 160 111.5 266t316.5 106q365 0 366 -335q2 -23 -6 -31t-31 -8h-108q-25 0 -33 8t-10 31q-6 82 -47 122.5t-135 40.5q-102 0 -154.5 -60t-52.5 -152.5t58 -154t200 -61.5h532q23 0 31 -8t8 -31v-94q0 -23 -8 -31 t-31 -6h-92v-534q0 -37 -33 -55q-86 -45 -212 -74t-240 -29q-463 0 -463 397zM379 377q0 -119 69.5 -181.5t202.5 -62.5q139 0 236 57v465h-193q-154 0 -234.5 -77.5t-80.5 -200.5z" />
<glyph unicode="'" horiz-adv-x="454" d="M123 1223v129q0 23 8 31t31 8h131q23 0 31 -8.5t8 -30.5v-133q0 -41 -6 -78l-25 -166q-2 -25 -11 -32t-34 -7h-57q-25 0 -34 7t-11 32l-25 170q-6 35 -6 78z" />
<glyph unicode="(" horiz-adv-x="688" d="M170 590q-6 39 0 78l127 821q2 25 11 32t34 7h215q23 0 31 -8.5t8 -30.5v-100q0 -23 -8 -31t-31 -6l-88 6l-109 -729l125 -772l93 6q23 2 30.5 -6t7.5 -31v-94q0 -23 -8 -31t-30 -8h-216q-25 0 -34 7t-11 32z" />
<glyph unicode=")" horiz-adv-x="688" d="M72 -174q0 23 8 31t31 6l92 -6l125 772l-109 729l-88 -6q-23 -2 -31 6t-8 31v100q0 23 8.5 31t30.5 8h215q25 0 34 -7.5t11 -31.5l127 -821q6 -39 0 -78l-147 -858q-2 -25 -11.5 -32t-33.5 -7h-215q-23 0 -31 8t-8 31v94z" />
<glyph unicode="*" horiz-adv-x="995" d="M147 934q-18 35 13 57l200 139l-200 146q-31 23 -10 55l2 4q12 20 23 23.5t32 -6.5l213 -103l29 240q4 23 12 31t31 8h10q23 0 31 -8.5t12 -30.5l22 -240l224 101q35 18 53 -17l2 -4q18 -33 -12 -55l-203 -139l205 -148q31 -23 10 -55l-4 -2q-12 -20 -22.5 -23.5 t-33.5 6.5l-215 101l-28 -236q-4 -23 -12.5 -31t-30.5 -8h-8q-23 0 -31 8.5t-12 30.5l-25 236l-221 -101q-35 -18 -53 19z" />
<glyph unicode="+" horiz-adv-x="1085" d="M72 582v55q0 23 8 31t31 8h354v354q0 23 8 31t31 8h71q23 0 31 -8t8 -31v-354h361q23 0 31 -8.5t8 -30.5v-55q0 -23 -8.5 -31t-30.5 -8h-361v-385q0 -23 -8 -31t-31 -8h-71q-23 0 -31 8t-8 31v385h-354q-23 0 -31 8t-8 31z" />
<glyph unicode="," horiz-adv-x="598" d="M137 121q0 57 40 96t108 39q74 0 114.5 -38t40.5 -105q0 -78 -94 -232l-113 -178q-12 -20 -22 -23.5t-33 7.5l-12 4q-23 10 -27 20t4 33l74 217q-2 4 -13 16.5t-16.5 18.5t-14.5 19.5t-14 23.5t-11.5 23.5t-8.5 27.5t-2 31z" />
<glyph unicode="-" horiz-adv-x="577" d="M61 485v121q0 23 8.5 31t30.5 8h377q23 0 31 -8t8 -31v-121q0 -23 -8 -31t-31 -8h-377q-23 0 -31 8.5t-8 30.5z" />
<glyph unicode="." horiz-adv-x="571" d="M104 102q0 59 43 100.5t109 41.5q70 0 113 -39t43 -100.5t-41 -102.5t-113 -41t-113 40t-41 101z" />
<glyph unicode="/" horiz-adv-x="919" d="M71.5 -200q-5.5 7 2.5 30l602 1659q8 23 17 30t34 7h82q23 0 29 -7t-2 -30l-605 -1659q-8 -23 -17 -30t-34 -7h-80q-23 0 -28.5 7z" />
<glyph unicode="0" horiz-adv-x="1179" d="M72 516q0 152 46 266.5t125 179t169 95t188 30.5q219 0 363.5 -133t144.5 -417q0 -289 -147.5 -425.5t-382.5 -136.5q-231 0 -368.5 138.5t-137.5 402.5zM311 518q0 -174 66.5 -274.5t208.5 -100.5q145 0 215.5 91.5t70.5 287.5q0 393 -280.5 393t-280.5 -397z" />
<glyph unicode="1" horiz-adv-x="694" d="M51 913v95q0 23 8 31t31 8h344q23 0 31 -8.5t8 -30.5v-846h141q23 2 31 -6.5t8 -30.5v-86q0 -23 -8 -31t-31 -8h-512q-23 0 -31 8t-8 31v86q0 23 8.5 31t30.5 6h142v723l-154 -8q-23 -2 -31 6t-8 30z" />
<glyph unicode="2" horiz-adv-x="1077" d="M82 739q8 166 120.5 257t297.5 91q188 0 293.5 -87t105.5 -261q0 -84 -32.5 -160.5t-78 -132t-119 -111.5t-130 -90t-136.5 -77h422l-8 102q-2 23 6 31t31 8h96q23 0 31 -8t8 -31v-340q0 -23 -8 -31t-31 -8h-96q-23 0 -31 8.5t-6 30.5l6 70h-696q-23 0 -31 8t-8 31v84 q0 37 35 53q115 59 191.5 106.5t166.5 118t136.5 151.5t46.5 171t-41 141t-150 51q-180 0 -205 -176q-4 -23 -12 -31t-31 -8h-106q-23 0 -31 8.5t-6 30.5z" />
<glyph unicode="3" horiz-adv-x="989" d="M41 55q-2 23 6 31t31 8h115q25 0 31.5 -7t11.5 -32q8 -94 59 -134t158 -40q111 0 169 53.5t58 182.5q0 219 -219 229q-23 2 -63 2h-60q-23 0 -31 8.5t-8 30.5v90q0 23 8 30t31 9q104 6 133 10q184 35 184 211q0 178 -184 178q-188 0 -209 -176q-4 -23 -12 -31t-31 -8 h-108q-23 0 -31 8.5t-6 30.5q8 172 123.5 260t289.5 88q190 0 290 -83.5t100 -239.5q0 -223 -265 -320q121 -16 207 -99t86 -230q0 -184 -125 -294t-334 -110q-197 0 -298 83t-107 261z" />
<glyph unicode="4" horiz-adv-x="1073" d="M61 70v90q0 41 21 71l485 783q20 33 60 33h161q23 0 31 -8.5t8 -30.5v-805h168q23 0 31 -8.5t8 -30.5v-94q0 -23 -8 -31t-31 -8h-170v-264q0 -23 -8 -31t-31 -8h-147q-23 0 -31 8t-8 31v264h-500q-23 0 -31 8t-8 31zM229 203h373v604z" />
<glyph unicode="5" horiz-adv-x="972" d="M23 59q0 23 7 31t29 8h121q23 0 31 -8t12 -31q16 -178 203 -178q238 0 238 281q0 262 -215 262q-104 0 -197 -70q-33 -23 -70 -8l-22 10q-23 10 -28 19.5t-3 34.5l68 598q4 23 12 31t31 8h585q23 0 31 -8.5t8 -30.5v-119q0 -23 -8 -31t-31 -8h-465l-43 -305q96 55 207 55 q162 0 265.5 -106.5t103.5 -303.5q0 -227 -123 -353t-340 -126q-389 0 -407 348z" />
<glyph unicode="6" horiz-adv-x="1118" d="M86 604q0 373 144.5 556t408.5 183q322 0 348 -305q2 -23 -5 -31t-30 -8h-112q-25 0 -33 8.5t-12 30.5q-20 133 -170 133q-299 0 -310 -452q109 152 318 151q193 0 296 -111.5t103 -295.5q0 -217 -124 -352.5t-337 -135.5q-485 0 -485 629zM319 453q0 -131 56.5 -220.5 t189.5 -89.5q242 0 242 283q0 266 -242 266q-88 0 -154.5 -41t-84.5 -127q-6 -33 -7 -71z" />
<glyph unicode="7" horiz-adv-x="944" d="M20 889v119q0 23 8.5 31t30.5 8h826q23 0 31 -8.5t8 -30.5v-90q0 -41 -17 -74l-518 -1082q-16 -35 -55 -34h-154q-39 0 -22 34l524 1088h-623q-23 0 -31 8t-8 31z" />
<glyph unicode="8" horiz-adv-x="1093" d="M78 313q0 231 266 373q-102 59 -153.5 128t-51.5 181q0 166 121 257t295 91q180 0 278.5 -82.5t98.5 -207.5q0 -111 -58.5 -183.5t-166.5 -144.5q166 -72 231.5 -150.5t65.5 -212.5q0 -174 -127 -280.5t-355 -106.5q-221 0 -332.5 93t-111.5 245zM295 328 q0 -190 235 -191q246 0 246 197q0 53 -23.5 97t-76.5 79t-81 49t-91 43q-209 -121 -209 -274zM362 1024q0 -78 47.5 -129t133.5 -96q55 39 87 65.5t60.5 73.5t28.5 98q0 147 -164 148q-86 0 -139.5 -41t-53.5 -119z" />
<glyph unicode="9" horiz-adv-x="1118" d="M86 616q0 207 123 339t338 132q246 0 365.5 -151.5t119.5 -468.5q0 -758 -543 -758q-338 0 -360 305q-2 23 6 31t31 8h113q25 0 32.5 -7t12.5 -32q14 -68 51 -100.5t123 -32.5q295 0 305 453q-109 -152 -318 -152q-195 0 -297 119t-102 315zM311 633q0 -273 242 -273 q94 0 160.5 51.5t81.5 141.5q4 23 4 72q0 121 -57.5 208t-188.5 87q-242 0 -242 -287z" />
<glyph unicode=":" horiz-adv-x="571" d="M104 102q0 59 43 100.5t109 41.5q70 0 113 -39t43 -100.5t-41 -102.5t-113 -41t-113 40t-41 101zM104 915q0 59 43 100.5t109 41.5q70 0 113 -39t43 -100.5t-41 -102.5t-113 -41t-113 40t-41 101z" />
<glyph unicode=";" horiz-adv-x="614" d="M137 121q0 57 40 96t108 39q74 0 114.5 -38t40.5 -105q0 -78 -94 -232l-113 -178q-12 -20 -22 -23.5t-33 7.5l-12 4q-23 10 -27 20t4 33l74 217q-2 4 -13 16.5t-16.5 18.5t-14.5 19.5t-14 23.5t-11.5 23.5t-8.5 27.5t-2 31zM147 915q0 59 43 100.5t109 41.5q70 0 113 -39 t43 -100.5t-41 -102.5t-113 -41t-113 40t-41 101z" />
<glyph unicode="&#x3c;" horiz-adv-x="1085" d="M109 514v61q0 25 6 34t28 20l799 348q35 14 35 -25v-82q0 -25 -6 -34t-29 -19l-657 -268l657 -285q23 -10 29 -20.5t6 -34.5v-86q0 -39 -35 -23l-799 359q-35 16 -34 55z" />
<glyph unicode="=" horiz-adv-x="1085" d="M72 328v55q0 23 8 31t31 8h864q23 0 31 -8t8 -31v-55q0 -23 -8.5 -31t-30.5 -8h-864q-23 0 -31 8t-8 31zM72 694v56q0 23 8 30.5t31 7.5h864q23 0 31 -8t8 -30v-56q0 -23 -8.5 -31t-30.5 -8h-864q-23 0 -31 8t-8 31z" />
<glyph unicode="&#x3e;" horiz-adv-x="1085" d="M109 115v102q0 31 28 43l664 289l-664 270q-29 12 -28 43v99q0 31 28 18l811 -352q29 -12 29 -43v-78q0 -31 -29 -43l-811 -367q-29 -12 -28 19z" />
<glyph unicode="?" horiz-adv-x="952" d="M74 1092q8 164 118.5 248.5t292.5 84.5q180 0 288 -91t108 -265q0 -182 -103.5 -290.5t-275.5 -153.5v-263q0 -23 -8 -30.5t-31 -7.5h-98q-23 0 -31 8t-8 30v349q0 23 7 32t29 15q295 66 295 295q0 215 -196 215q-178 0 -199 -176q-4 -23 -12 -31t-31 -8h-108 q-23 0 -31 8t-6 31zM272 92q0 53 39 90t99 37q63 0 101 -34.5t38 -90t-35.5 -92.5t-101.5 -37q-63 0 -101.5 36t-38.5 91z" />
<glyph unicode="@" horiz-adv-x="1736" d="M96 469q0 365 222.5 588t590.5 223q350 0 547 -188.5t197 -540.5q0 -102 -17.5 -190.5t-58.5 -174.5t-124 -136t-200 -50q-80 0 -130 33t-52 96q-106 -129 -283 -129q-119 0 -201.5 65.5t-82.5 204.5q0 76 25.5 135.5t72.5 95.5t98.5 59.5t122 34.5t121.5 15t115 4v50 q0 96 -38 142t-130 46q-90 0 -126 -26.5t-44 -82.5q-4 -23 -12.5 -30.5t-32.5 -7.5h-92q-23 0 -30 8t-5 30q14 139 120.5 200t256.5 61q340 0 340 -314v-491q0 -100 67 -101q111 0 171.5 124t60.5 317q0 313 -174 488t-496 175q-319 0 -509.5 -204.5t-190.5 -524.5 q0 -344 194.5 -511t511.5 -167q61 0 127 6q23 2 30 -4t11 -28v-5q6 -37 -31 -38q-74 -6 -145 -7q-174 0 -317.5 45.5t-251 134.5t-168 234.5t-60.5 335.5zM711 299q0 -139 155 -139q92 0 144.5 42t52.5 99v182q-63 -2 -96 -4t-90.5 -12t-87 -27.5t-54 -53.5t-24.5 -87z" />
<glyph unicode="A" horiz-adv-x="1425" d="M0 31v100q0 31 31 31h121l409 1200q12 29 41 29h199q29 0 41 -29l413 -1200h140q31 0 30 -31v-100q0 -31 -30 -31h-514q-31 0 -31 31v100q0 31 31 31h127l-97 276h-473l-94 -276h123q31 0 31 -31v-100q0 -31 -31 -31h-436q-31 0 -31 31zM479 592h387l-192 602z" />
<glyph unicode="B" horiz-adv-x="1202" d="M80 31v100q0 31 31 31h108v1063h-106q-31 0 -31 30v105q0 33 31 33q246 10 436 10q252 0 384 -85t132 -243q0 -115 -70.5 -199.5t-167.5 -123.5q158 -25 241 -117t83 -225q0 -174 -129 -282t-342 -122q-88 -6 -283 -6h-286q-31 0 -31 31zM449 158h92q180 0 279.5 57 t99.5 199q0 231 -324 231h-147v-487zM449 815h77q303 0 303 211q0 119 -73.5 165t-210.5 46h-96v-422z" />
<glyph unicode="C" horiz-adv-x="1288" d="M88 688q0 197 58.5 346.5t154.5 231.5t203.5 120.5t224.5 38.5q238 0 428 -104q27 -14 27 -41v-264q0 -31 -31 -31h-115q-31 0 -28 31l6 143q-127 86 -289 86q-393 0 -393 -524q0 -164 39 -286t137 -201.5t252 -79.5q174 0 256 65l-8 143q-2 31 28 31h117q31 0 31 -31 v-260q0 -29 -21 -39q-180 -88 -411 -88q-336 0 -501 190.5t-165 522.5z" />
<glyph unicode="D" horiz-adv-x="1390" d="M82 31v100q0 31 31 31h106v1063h-106q-31 0 -31 30v105q0 31 31 31q262 12 442 12q74 0 136.5 -5t142 -21.5t142 -44t126 -79t105.5 -120t69 -171t27 -229.5q0 -371 -205 -552t-559 -181h-426q-31 0 -31 31zM449 160h135q225 0 349 147t124 389q0 270 -116 403.5 t-361 133.5h-131v-1073z" />
<glyph unicode="E" horiz-adv-x="1136" d="M82 31v100q0 31 31 31h108v1063h-108q-31 0 -31 30v105q0 31 31 31h901q31 0 30 -31v-275q0 -31 -30 -30h-115q-31 0 -29 30l9 142h-428v-436h305l-8 104q-2 31 28 31h115q31 0 31 -31v-363q0 -31 -31 -30h-115q-31 0 -28 30l6 99h-303v-471h469l-9 145q-2 31 29 31h115 q31 0 30 -31v-274q0 -31 -30 -31h-942q-31 0 -31 31z" />
<glyph unicode="F" horiz-adv-x="1105" d="M82 31v100q0 31 31 31h108v1063h-108q-31 0 -31 30v105q0 31 31 31h921q31 0 31 -31v-275q0 -31 -31 -30h-114q-31 0 -29 30l8 142h-448v-426h325l-8 104q-2 31 29 31h114q31 0 31 -31v-362q0 -31 -31 -31h-114q-31 0 -29 31l6 98h-323v-479h211q31 0 30 -31v-100 q0 -31 -30 -31h-549q-31 0 -31 31z" />
<glyph unicode="G" horiz-adv-x="1423" d="M88 698q0 193 58.5 339.5t154.5 228.5t203.5 120.5t224.5 38.5q250 0 426 -108q29 -16 29 -45v-256q0 -31 -31 -31h-117q-31 0 -28 31l6 137q-129 92 -287 92q-143 0 -234.5 -74.5t-125 -184t-33.5 -255.5q0 -164 38 -286.5t137 -204.5t253 -82q164 0 270 71v250h-131 q-31 0 -31 31v102q0 31 31 31h451q31 0 30 -31v-102q0 -31 -30 -31h-109v-348q0 -29 -29 -43q-88 -47 -218 -80t-242 -33q-176 0 -307.5 55.5t-208 156t-113.5 228.5t-37 283z" />
<glyph unicode="H" horiz-adv-x="1521" d="M82 31v100q0 31 31 31h108v1063h-108q-31 0 -31 30v105q0 31 31 31h446q31 0 31 -31v-105q0 -31 -31 -30h-108v-422h620v422h-108q-31 0 -31 30v105q0 31 31 31h446q31 0 31 -31v-105q0 -31 -31 -30h-109v-1063h109q31 0 31 -31v-100q0 -31 -31 -31h-446q-31 0 -31 31 v100q0 31 31 31h108v465h-620v-465h108q31 0 31 -31v-100q0 -31 -31 -31h-446q-31 0 -31 31z" />
<glyph unicode="I" horiz-adv-x="671" d="M82 31v100q0 31 31 31h108v1063h-108q-31 0 -31 30v105q0 31 31 31h446q31 0 31 -31v-105q0 -31 -31 -30h-108v-1063h108q31 0 31 -31v-100q0 -31 -31 -31h-446q-31 0 -31 31z" />
<glyph unicode="J" horiz-adv-x="673" d="M-164 -410l37 107q10 31 37 20q68 -26 138 -26h5q88 0 129 53t41 178v1303h-108q-31 0 -31 30v105q0 31 31 31h446q31 0 31 -31v-105q0 -31 -31 -30h-108v-1311q0 -406 -375 -406q-141 0 -232 43q-13 7 -13 22q0 7 3 17z" />
<glyph unicode="K" horiz-adv-x="1359" d="M82 31v100q0 31 31 31h108v1063h-108q-31 0 -31 30v105q0 31 31 31h446q31 0 31 -31v-105q0 -31 -31 -30h-108v-439h106l381 439h-109q-31 0 -30 30v105q0 31 30 31h418q31 0 31 -31v-109q0 -31 -31 -30h-104l-406 -473l408 -586h133q31 0 31 -31v-100q0 -31 -31 -31 h-262q-31 0 -49 25l-412 593h-104v-456h108q31 0 31 -31v-100q0 -31 -31 -31h-446q-31 0 -31 31z" />
<glyph unicode="L" horiz-adv-x="1075" d="M82 31v100q0 31 31 31h108v1063h-108q-31 0 -31 30v105q0 31 31 31h487q31 0 31 -31v-105q0 -31 -31 -30h-149v-1063h428l-9 143q-2 31 29 31h115q31 0 30 -31v-403q0 -31 -30 -31h-115q-31 0 -29 31l7 98h-764q-31 0 -31 31z" />
<glyph unicode="M" horiz-adv-x="1861" d="M82 31v100q0 31 31 31h108v1063h-108q-31 0 -31 30v105q0 31 31 31h358q33 0 41 -29l422 -1100l432 1100q8 29 41 29h342q31 0 31 -31v-105q0 -31 -31 -30h-109v-1063h109q31 0 31 -31v-100q0 -31 -31 -31h-451q-31 0 -30 31v100q0 31 30 31h123v874l-403 -1007 q-12 -29 -43 -29h-135q-31 0 -43 29l-398 1009v-876h129q31 0 31 -31v-100q0 -31 -31 -31h-415q-31 0 -31 31z" />
<glyph unicode="N" horiz-adv-x="1521" d="M82 31v100q0 31 31 31h108v1063h-108q-31 0 -31 30v105q0 31 31 31h301q29 0 47 -27l682 -1036v897h-109q-31 0 -30 30v105q0 31 30 31h396q31 0 30 -31v-105q0 -31 -30 -30h-109v-1194q0 -31 -31 -31h-149q-31 0 -47 25l-695 1026v-889h170q31 0 31 -31v-100 q0 -31 -31 -31h-456q-31 0 -31 31z" />
<glyph unicode="O" horiz-adv-x="1417" d="M88 682q0 205 61.5 357.5t161 232.5t202.5 116.5t212 36.5q76 0 145.5 -12t157.5 -54t150.5 -112.5t106.5 -202t44 -305.5q0 -369 -181 -566.5t-466 -197.5q-283 0 -438.5 180.5t-155.5 526.5zM334 754q0 -586 373 -586q367 0 366 532q0 545 -373 545q-131 0 -216 -70.5 t-117.5 -176t-32.5 -244.5z" />
<glyph unicode="P" horiz-adv-x="1157" d="M82 31v100q0 31 31 31h106v1065h-106q-31 0 -31 30v103q0 31 31 31q262 12 428 12q544 0 544 -398q0 -208 -133 -329t-362 -121q-90 0 -141 6v-399h169q31 0 31 -31v-100q0 -31 -31 -31h-505q-31 0 -31 31zM449 719q18 -2 94 -2q307 0 307 272q0 98 -50 154.5t-117 73 t-161 16.5h-73v-514z" />
<glyph unicode="Q" horiz-adv-x="1417" d="M88 680q0 166 42 298t106.5 214t151.5 136t170 75.5t167 21.5q76 0 145.5 -12t157.5 -55t150.5 -113.5t106.5 -202t44 -305.5q0 -258 -92 -431t-252 -259q39 -141 186 -268q23 -18 5 -43l-48 -58q-9 -12 -23 -12q-10 0 -22 6q-270 139 -352 305q-8 0 -24.5 -1t-24.5 -1 q-285 0 -439.5 179.5t-154.5 525.5zM334 752q0 -584 373 -584q367 0 366 530q0 547 -373 547q-131 0 -216 -71.5t-117.5 -177t-32.5 -244.5z" />
<glyph unicode="R" horiz-adv-x="1261" d="M82 31v100q0 31 31 31h106v1065h-106q-31 0 -31 30v103q0 31 31 31q262 12 436 12q532 0 532 -381q0 -133 -67.5 -234.5t-179.5 -154.5l239 -471h127q31 0 31 -31v-100q0 -31 -31 -31h-270q-31 0 -45 27l-279 551h-41q-66 0 -116 6v-422h129q31 0 30 -31v-100 q0 -31 -30 -31h-465q-31 0 -31 31zM449 739q16 -2 47 -2q166 0 258 65.5t92 196.5q0 233 -324 234h-73v-494z" />
<glyph unicode="S" horiz-adv-x="1058" d="M113 66v325q0 31 30 31h115q31 0 29 -31l-8 -170q27 -25 89 -46t128 -21q254 0 254 206q0 100 -68 159t-203 104q-80 27 -135 54.5t-112.5 71.5t-86 110.5t-28.5 152.5q0 180 123 296.5t340 116.5q152 0 303 -45q29 -8 28 -37v-282q0 -31 -30 -31h-115q-31 0 -29 31 l6 137q-82 49 -184 49q-98 0 -158.5 -48t-60.5 -132q0 -88 55.5 -142.5t184.5 -103.5q76 -29 110.5 -43t101 -53t98.5 -77t59.5 -101.5t27.5 -140.5q0 -203 -128 -317t-364 -114q-174 0 -344 54q-29 8 -28 37z" />
<glyph unicode="T" horiz-adv-x="1214" d="M41 1067v293q0 31 31 31h1071q31 0 31 -31v-293q0 -31 -31 -31h-125q-31 0 -29 31l10 160h-276v-1065h170q31 0 31 -31v-100q0 -31 -31 -31h-569q-31 0 -31 31v100q0 31 31 31h168v1065h-277l10 -160q2 -31 -28 -31h-125q-31 0 -31 31z" />
<glyph unicode="U" horiz-adv-x="1460" d="M51 1255v105q0 31 31 31h446q31 0 31 -31v-105q0 -31 -31 -30h-108v-643q0 -102 10 -169t41 -130.5t96.5 -93t169.5 -29.5q184 0 260 106.5t76 308.5v650h-108q-31 0 -31 30v105q0 31 31 31h413q31 0 31 -31v-105q0 -31 -31 -30h-108v-693q0 -113 -24.5 -204.5 t-82 -174.5t-167 -130.5t-265.5 -47.5q-303 0 -422 132.5t-119 402.5v715h-108q-31 0 -31 30z" />
<glyph unicode="V" horiz-adv-x="1400" d="M10 1255v105q0 31 31 31h520q31 0 31 -31v-105q0 -31 -31 -30h-125l291 -981l332 981h-131q-31 0 -31 30v105q0 31 31 31h432q31 0 31 -31v-105q0 -31 -31 -30h-109l-420 -1196q-12 -29 -40 -29h-199q-29 0 -41 29l-383 1196h-127q-31 0 -31 30z" />
<glyph unicode="W" horiz-adv-x="2041" d="M10 1255v105q0 31 31 31h512q31 0 31 -31v-105q0 -31 -31 -30h-145l219 -953l299 1090q8 29 39 29h168q31 0 38 -29l297 -1096l236 959h-135q-31 0 -31 30v105q0 31 31 31h432q31 0 31 -31v-105q0 -31 -31 -30h-109l-315 -1194q-8 -31 -39 -31h-192q-31 0 -39 29 l-287 1020l-275 -1020q-8 -29 -38 -29h-226q-31 0 -39 31l-295 1194h-106q-31 0 -31 30z" />
<glyph unicode="X" horiz-adv-x="1386" d="M12 31v98q0 31 31 31h109l399 532l-389 533h-111q-31 0 -31 30v105q0 31 31 31h512q31 0 31 -31v-105q0 -31 -31 -30h-125l264 -369l269 369h-115q-31 0 -31 30v105q0 31 31 31h432q31 0 31 -31v-105q0 -31 -31 -30h-106l-379 -496l407 -569h125q31 0 31 -31v-98 q0 -31 -31 -31h-536q-31 0 -31 31v98q0 31 31 31h131l-279 391l-291 -391h129q31 0 31 -31v-98q0 -31 -31 -31h-446q-31 0 -31 31z" />
<glyph unicode="Y" horiz-adv-x="1359" d="M20 1255v105q0 31 31 31h520q31 0 31 -31v-105q0 -31 -31 -30h-145l295 -504l293 504h-137q-31 0 -31 30v105q0 31 31 31h432q31 0 30 -31v-105q0 -31 -30 -30h-109l-399 -672v-393h108q31 0 31 -31v-98q0 -31 -31 -31h-446q-31 0 -31 31v98q0 31 31 31h108v366l-413 699 h-107q-31 0 -31 30z" />
<glyph unicode="Z" horiz-adv-x="1204" d="M63 31v98q0 31 19 55l762 1047h-572l11 -164q2 -31 -29 -31h-125q-31 0 -31 31v293q0 31 31 31h967q31 0 30 -31v-98q0 -31 -18 -56l-770 -1046h627l-13 145q-2 31 29 31h121q31 0 31 -31v-403q0 -31 -31 -31h-115q-31 0 -29 31l7 98h-871q-31 0 -31 31z" />
<glyph unicode="[" horiz-adv-x="690" d="M258 -268v1757q0 23 8 31t31 8h297q23 0 31 -8.5t8 -30.5v-105q0 -23 -8.5 -30.5t-30.5 -5.5l-139 10v-1501l139 10q23 2 31 -6t8 -31v-98q0 -23 -8.5 -31t-30.5 -8h-297q-23 0 -31 8t-8 31z" />
<glyph unicode="\" horiz-adv-x="888" d="M51 1519q6 7 29 7h82q25 0 34 -7.5t17 -29.5l602 -1659q8 -23 2 -30t-29 -7h-79q-25 0 -34.5 7t-17.5 30l-604 1659q-8 23 -2 30z" />
<glyph unicode="]" horiz-adv-x="690" d="M57 -170q0 23 8.5 31t30.5 6l140 -10v1501l-140 -10q-23 -2 -31 6t-8 30v105q0 23 8.5 31t30.5 8h297q23 0 31 -8.5t8 -30.5v-1757q0 -23 -8 -31t-31 -8h-297q-23 0 -31 8t-8 31v98z" />
<glyph unicode="^" horiz-adv-x="1196" d="M139 672l344 712q12 29 43 29h97q31 0 43 -29l344 -712q12 -29 -19 -29h-141q-31 0 -43 29l-236 530l-237 -530q-12 -29 -43 -29h-135q-31 0 -17 29z" />
<glyph unicode="_" d="M-14 -252q0 23 8 31t31 8h974q23 0 31 -8t8 -31v-39q0 -23 -8 -31t-31 -8h-974q-23 0 -31 8.5t-8 30.5v39z" />
<glyph unicode="`" d="M393 1491.5q4 7.5 27 7.5h147q25 0 34 -7t17 -30l89 -237q8 -20 1.5 -28.5t-28.5 -8.5h-90q-41 0 -58 35l-133 241q-10 20 -6 27.5z" />
<glyph unicode="a" horiz-adv-x="1073" d="M72 264q0 70 22.5 124t54 89t88 60.5t101.5 38t115.5 20.5t110.5 9t108 3v72q0 43 -5 73.5t-22.5 61.5t-55.5 47.5t-95 16.5q-90 0 -130 -34t-55 -97q-6 -31 -30 -31h-132q-33 0 -28 31q8 150 120.5 219t286.5 69q367 0 367 -336v-538h88q31 0 31 -31v-100q0 -31 -31 -31 h-242q-27 0 -30 31l-15 94q-111 -150 -319 -150q-131 0 -217 69t-86 220zM289 285q0 -141 162 -142q106 0 165.5 50t59.5 116v158q-59 0 -88 -1t-84 -6t-85 -17.5t-65 -31t-50 -51t-15 -75.5z" />
<glyph unicode="b" horiz-adv-x="1196" d="M41 1389v108q0 31 31 31h309q31 0 31 -31v-637q49 82 132 129t179 47q188 0 294.5 -125t106.5 -368q0 -287 -121.5 -427.5t-320.5 -140.5q-113 0 -196 40t-119 100l-13 -84q-2 -31 -30 -31h-250q-31 0 -31 31v100q0 31 31 31h108v1196h-110q-31 0 -31 31zM412 256 q8 -12 26.5 -29.5t79 -47t127.5 -29.5q248 0 248 350q0 76 -8 130t-32 107.5t-74 82t-126 28.5q-96 0 -168.5 -63t-72.5 -167v-362z" />
<glyph unicode="c" horiz-adv-x="958" d="M72 502q0 236 121.5 385t363.5 149q184 0 272.5 -100t88.5 -256q0 -27 -35 -27h-123q-33 0 -35 31q-10 180 -182 180q-123 0 -180.5 -85t-57.5 -259q0 -373 289 -373q92 0 215 56q31 12 43 -19l37 -90q10 -29 -17 -43q-125 -76 -315 -76q-248 0 -366.5 140.5 t-118.5 386.5z" />
<glyph unicode="d" horiz-adv-x="1193" d="M72 477q0 281 126 420t324 139q90 0 160 -33.5t102 -80.5v436h-108q-31 0 -31 31v108q0 31 31 31h307q31 0 31 -31v-1335h88q31 0 31 -31v-100q0 -31 -31 -31h-232q-27 0 -30 31l-17 121q-104 -176 -334 -177q-201 0 -309 126t-108 376zM303 512q0 -78 8 -134t32 -111.5 t74 -84t128 -28.5q94 0 166.5 63.5t72.5 167.5v360q-8 12 -25.5 31t-75.5 49.5t-126 30.5q-254 0 -254 -344z" />
<glyph unicode="e" horiz-adv-x="1001" d="M72 508q0 221 120.5 374.5t348.5 153.5q113 0 193.5 -42t123.5 -114.5t62.5 -151.5t19.5 -169q0 -45 -2 -70q-2 -20 -8 -26t-29 -6h-602q10 -147 72.5 -228.5t216.5 -81.5q113 0 231 54q29 14 41 -17l39 -94q10 -25 -18 -41q-135 -74 -338 -74q-244 0 -357.5 142.5 t-113.5 390.5zM299 608h426v10q0 246 -201 246q-121 0 -171 -77t-54 -179z" />
<glyph unicode="f" horiz-adv-x="733" d="M41 31v100q0 31 31 31h127v686h-127q-31 0 -31 31v104q0 31 31 31h127v198q0 70 12 125.5t44 107.5t96.5 80.5t160.5 28.5q125 0 240 -51q18 -7 18 -25q0 -6 -2 -14l-31 -102q-10 -25 -35 -14q-82 36 -142 36h-3q-84 0 -106.5 -48t-22.5 -173v-149h248q31 0 31 -31v-104 q0 -31 -31 -31h-248v-686h217q31 0 31 -31v-100q0 -31 -31 -31h-573q-31 0 -31 31z" />
<glyph unicode="g" horiz-adv-x="1167" d="M72 477q0 283 123.5 421t316.5 138q182 0 297 -133l20 80q10 31 37 31h250q31 0 31 -31v-106q0 -31 -31 -31h-112v-727q0 -131 -11 -244q-16 -174 -127.5 -270.5t-324.5 -96.5q-197 0 -336 62q-25 10 -17 41l37 108q8 29 41 17q125 -51 250 -51q131 0 194.5 61t63.5 217 v160q-90 -147 -303 -148q-188 0 -293.5 129t-105.5 373zM303 514q0 -176 49 -269t191 -93q90 0 160.5 63.5t70.5 167.5v365q-8 12 -25.5 30.5t-76 48t-125.5 29.5q-109 0 -176.5 -81t-67.5 -261z" />
<glyph unicode="h" horiz-adv-x="1226" d="M41 31v100q0 31 31 31h110v1198h-110q-31 0 -31 31v106q0 31 31 31h309q31 0 31 -31v-631q115 170 317 170q317 0 318 -348v-526h120q31 0 31 -31v-100q0 -31 -31 -31h-448q-31 0 -31 31v100q0 31 31 31h98v424q0 129 -32.5 188.5t-143.5 59.5q-94 0 -161.5 -61.5 t-67.5 -139.5v-471h125q31 0 30 -31v-100q0 -31 -30 -31h-465q-31 0 -31 31z" />
<glyph unicode="i" horiz-adv-x="602" d="M33 31q0 -31 30 -31h488q31 0 31 31v100q0 31 -31 31h-129v821q0 31 -31 31h-309q-31 0 -31 -31v-106q0 -31 31 -31h111v-684h-130q-31 0 -30 -31v-100zM135 1300.5q0 63.5 40 105.5t106 42q68 0 107.5 -42t39.5 -105.5t-41 -104.5t-106 -41q-68 0 -107 41t-39 104.5z " />
<glyph unicode="j" horiz-adv-x="591" d="M-203 -408l41 113q10 27 39 16q65 -24 137 -24h6q172 0 173 240v909h-111q-31 0 -31 31v106q0 31 31 31h309q31 0 31 -31v-1067q0 -408 -363 -408q-156 0 -245 43q-20 10 -20 27q0 7 3 14zM135 1300.5q0 63.5 40 105.5t106 42q68 0 107.5 -42t39.5 -105.5t-41 -104.5 t-106 -41q-68 0 -107 41t-39 104.5z" />
<glyph unicode="k" horiz-adv-x="1159" d="M51 1393v104q0 31 31 31h309q31 0 31 -31v-817h104l318 311q23 23 53 23h160q31 0 30 -31v-106q0 -31 -30 -31h-125l-225 -219l280 -465h121q31 0 31 -31v-100q0 -31 -31 -31h-264q-29 0 -47 27l-308 495h-67v-360h108q31 0 31 -31v-100q0 -31 -31 -31h-446q-31 0 -31 31 v100q0 31 31 31h109v1200h-111q-31 0 -31 31z" />
<glyph unicode="l" horiz-adv-x="602" d="M33 31v100q0 31 30 31h130v1198h-111q-31 0 -31 31v106q0 31 31 31h309q31 0 31 -31v-1335h129q31 0 31 -31v-100q0 -31 -31 -31h-488q-31 0 -30 31z" />
<glyph unicode="m" horiz-adv-x="1828" d="M51 877v106q0 31 31 31h280q27 0 31 -31l17 -119q106 172 309 172q223 0 291 -180q111 180 321 180q317 0 318 -348v-526h116q31 0 31 -31v-100q0 -31 -31 -31h-450q-31 0 -31 31v100q0 31 31 31h104v424q0 129 -32.5 188.5t-143.5 59.5q-88 0 -147.5 -53.5t-59.5 -125.5 v-493h99q31 0 30 -31v-100q0 -31 -30 -31h-420q-31 0 -31 31v100q0 31 31 31h92v424q0 129 -33 188.5t-143 59.5q-92 0 -150.5 -60.5t-58.5 -140.5v-471h125q31 0 31 -31v-100q0 -31 -31 -31h-463q-31 0 -31 31v100q0 31 31 31h109v684h-111q-31 0 -31 31z" />
<glyph unicode="n" horiz-adv-x="1236" d="M51 874v109q0 31 31 31h278q27 0 33 -31l19 -119q115 172 327 172q317 0 318 -348v-526h119q31 0 30 -31v-100q0 -31 -30 -31h-447q-31 0 -31 31v100q0 31 31 31h98v424q0 129 -32.5 188.5t-143.5 59.5q-94 0 -161.5 -61.5t-67.5 -139.5v-471h127q31 0 31 -31v-100 q0 -31 -31 -31h-465q-31 0 -31 31v100q0 31 31 31h109v684h-111q-31 -1 -31 28z" />
<glyph unicode="o" horiz-adv-x="1089" d="M72 492q0 154 47 266t123.5 169.5t154.5 83t160 25.5q57 0 109.5 -8t120 -39t115.5 -82t82 -147t34 -225q0 -274 -138.5 -417t-355.5 -143q-213 0 -332.5 130.5t-119.5 386.5zM303 537q0 -394 240 -394q123 0 179 91.5t56 271.5t-56 271t-183 91q-236 0 -236 -331z" />
<glyph unicode="p" horiz-adv-x="1196" d="M41 877v106q0 31 31 31h278q25 0 31 -31l20 -123q104 176 322 176q188 0 294.5 -124t106.5 -365q0 -293 -125 -432.5t-321 -139.5q-162 0 -266 86v-368h217q31 0 30 -31v-102q0 -31 -30 -31h-555q-31 0 -31 31v100q0 31 31 31h108v1155h-110q-31 0 -31 31zM412 231 q10 -10 28.5 -24t79 -38t125.5 -24q119 0 183.5 81t64.5 274q0 78 -8 133t-32 108.5t-74 80t-126 26.5q-96 0 -168.5 -60.5t-72.5 -164.5v-392z" />
<glyph unicode="q" horiz-adv-x="1177" d="M72 477q0 276 126 417.5t324 141.5q96 0 175 -37.5t120 -99.5l21 84q10 31 32 31h256q31 0 31 -31v-106q0 -31 -31 -31h-112v-1157h108q31 0 31 -31v-98q0 -31 -31 -31h-307q-31 0 -31 31v569q-96 -154 -311 -154q-188 0 -294.5 129t-106.5 373zM303 520q0 -82 8 -139 t32 -114.5t74 -86t126 -28.5q100 0 170.5 64.5t70.5 170.5v358q-8 12 -25.5 31t-75.5 48.5t-126 29.5q-115 0 -184.5 -82t-69.5 -252z" />
<glyph unicode="r" horiz-adv-x="923" d="M51 877v106q0 31 31 31h270q29 0 35 -31l23 -145q35 82 112.5 140t179.5 58q82 0 132 -16q25 -8 24 -37v-276q0 -31 -31 -31h-133q-31 0 -28 31l8 118q-10 2 -35 2q-94 0 -155.5 -76.5t-61.5 -205.5v-383h225q31 0 31 -31v-100q0 -31 -31 -31h-563q-31 0 -31 31v100 q0 31 31 31h109v684h-111q-31 0 -31 31z" />
<glyph unicode="s" horiz-adv-x="903" d="M113 55v217q0 31 30 31h119q31 0 29 -31l-6 -106q55 -41 157 -41q182 0 183 129q0 66 -52.5 103.5t-128 58t-150.5 46t-127 90t-52 169.5q0 135 104.5 225t286.5 90q137 0 254 -37q29 -8 28 -36v-218q0 -31 -30 -30h-119q-33 0 -27 30l11 105q-61 33 -136 33 q-163 0 -163 -114q0 -60 53 -95t129 -56.5t152.5 -49t130 -94t53.5 -169.5q0 -156 -108.5 -243t-305.5 -87q-137 0 -289 41q-27 8 -26 39z" />
<glyph unicode="t" horiz-adv-x="755" d="M31 877v106q0 31 30 31h117v276q0 31 31 31h168q31 0 31 -31v-276h206q31 0 31 -31v-106q0 -31 -31 -31h-206v-516q0 -96 24.5 -139.5t97.5 -43.5q59 0 125 29q23 8 33 -16l37 -94q3 -7 3 -13q0 -17 -21 -28q-98 -49 -234 -50q-61 0 -109.5 12.5t-79 30t-52 51t-32 59.5 t-15.5 73t-6 73.5t-1 77.5v494h-117q-31 0 -30 31z" />
<glyph unicode="u" horiz-adv-x="1226" d="M41 877v106q0 31 31 31h307q31 0 31 -31v-598q0 -123 31.5 -175t144.5 -52q94 0 161.5 61.5t67.5 138.5v488h-129q-31 0 -31 31v106q0 31 31 31h328q31 0 30 -31v-821h91q31 0 30 -31v-100q0 -31 -30 -31h-230q-25 0 -31 31l-18 114q-131 -170 -344 -170q-332 0 -332 349 v522h-108q-31 0 -31 31z" />
<glyph unicode="v" horiz-adv-x="1062" d="M0 877v106q0 31 31 31h268q31 0 39 -29l237 -758l216 619h-105q-31 0 -31 31v106q0 31 31 31h299q25 0 36 -20q6 -10 6 -21q0 -10 -5 -21l-350 -923q-8 -29 -41 -29h-176q-29 0 -41 29l-281 817h-102q-31 0 -31 31z" />
<glyph unicode="w" horiz-adv-x="1599" d="M0 877v106q0 31 31 31h268q31 0 39 -31l186 -731l203 733q8 29 39 29h164q31 0 39 -29l209 -737l182 598h-98q-31 0 -31 31v106q0 31 31 31h262q25 0 36 -16q7 -11 7 -25q0 -7 -2 -15l-283 -929q-8 -29 -39 -29h-184q-31 0 -39 31l-195 723l-202 -725q-8 -29 -39 -29 h-185q-31 0 -39 29l-223 817h-106q-31 0 -31 31z" />
<glyph unicode="x" horiz-adv-x="1132" d="M47 31v100q0 31 31 31h106l260 346l-204 338h-131q-31 0 -31 31v106q0 31 31 31h256q31 0 45 -27l180 -317l131 176h-76q-31 0 -31 31v106q0 31 31 31h389q31 0 31 -31v-106q0 -31 -31 -31h-123l-229 -307l231 -377h142q31 0 30 -31v-100q0 -31 -30 -31h-269 q-29 0 -47 27l-200 340l-150 -205h113q31 0 30 -31v-100q0 -31 -30 -31h-424q-31 0 -31 31z" />
<glyph unicode="y" horiz-adv-x="1062" d="M-8 -408l35 101q8 27 39 18q98 -33 161 -33q61 0 95 32t71 132l51 135l-311 869h-102q-31 0 -31 31v106q0 31 31 31h268q31 0 39 -29l240 -745l213 606h-105q-31 0 -31 31v106q0 31 31 31h299q25 0 36 -20q6 -10 6 -21q0 -10 -5 -21l-438 -1145q-31 -78 -52.5 -119.5 t-61.5 -90t-97.5 -69t-139.5 -20.5q-133 0 -227 46q-17 9 -17 24q0 7 3 14z" />
<glyph unicode="z" horiz-adv-x="925" d="M72 31v119q0 31 18 55l510 645h-340l4 -109q2 -31 -28 -30h-113q-31 0 -31 30v242q0 31 31 31h702q31 0 31 -31v-115q0 -31 -18 -55l-523 -653h379l-4 129q-2 31 29 30h115q30 1 30 -30l-2 -258q0 -31 -31 -31h-729q-31 0 -30 31z" />
<glyph unicode="{" horiz-adv-x="671" d="M82 598v98q0 23 8 31t31 8h160l-56 754q-2 23 6.5 31t30.5 8h313q23 0 31 -8.5t8 -30.5v-105q0 -23 -8 -30.5t-31 -5.5l-139 10v-1501l139 10q23 2 31 -6t8 -31v-98q0 -23 -8 -31t-31 -8h-313q-23 0 -31 8t-6 31l56 827h-160q-23 0 -31 8t-8 31z" />
<glyph unicode="|" horiz-adv-x="526" d="M184 -168v1655q0 23 8.5 31t30.5 8h80q23 0 31 -8t8 -31v-1655q0 -23 -8 -31t-31 -8h-80q-23 0 -31 8.5t-8 30.5z" />
<glyph unicode="}" horiz-adv-x="675" d="M82 -170q0 23 8 31t31 6l139 -10v1501l-139 -10q-23 -2 -31 6t-8 30v105q0 23 8 31t31 8h313q23 0 31 -8.5t6 -30.5l-55 -754h159q23 0 31 -8t8 -31v-98q0 -23 -8 -31t-31 -8h-159l55 -827q2 -23 -6 -31t-31 -8h-313q-23 0 -31 8t-8 31v98z" />
<glyph unicode="~" horiz-adv-x="1302" d="M147 473q0 147 66.5 214t146.5 67q76 0 273.5 -56.5t269.5 -56.5q47 0 72.5 15.5t25.5 62.5q0 33 31 33h76q31 0 31 -31q2 -145 -60.5 -212t-160.5 -67q-94 0 -294 55.5t-243 55.5q-49 0 -66.5 -19.5t-17.5 -66.5q0 -27 -29 -27h-90q-31 0 -31 33z" />
<glyph unicode="&#xa2;" horiz-adv-x="958" d="M131 559q0 209 111.5 345t326.5 138l19 140q4 23 13 31t32 8h8q23 0 30 -8.5t3 -30.5l-19 -144q121 -23 185.5 -108.5t64.5 -214.5q2 -23 -6 -31t-31 -8h-90q-25 0 -32 7t-11 32q-12 135 -102 162l-84 -631q18 -4 57 -4q88 0 187 41q37 16 49 -21l24 -72q8 -23 5 -33 t-23 -20q-131 -68 -281 -67h-43l-20 -158q-4 -23 -13 -31t-32 -8h-8q-23 0 -30 8t-3 31l22 172q-309 72 -309 475zM340 567q0 -215 125 -299l82 615q-102 -8 -154.5 -91t-52.5 -225z" />
<glyph unicode="&#xa3;" horiz-adv-x="929" d="M27 51q-10 39 22 62q53 41 82 90q53 98 57 274h-84q-23 0 -29.5 8.5t-4.5 30.5l6 49q4 23 12 31t31 8h78l8 133q12 182 114.5 266t260.5 84q92 0 227 -32q23 -6 30 -15.5t7 -33.5v-220q0 -23 -8.5 -30.5t-30.5 -7.5h-86q-23 0 -31 8t-6 30l8 105q-57 39 -137 39 q-74 0 -104.5 -41t-36.5 -137l-9 -148h295q23 0 30 -8t3 -31l-6 -53q-2 -25 -11 -32t-34 -7h-285q-4 -102 -27.5 -163.5t-86.5 -139.5h432l-8 106q-2 23 6 31t30 8h99q23 0 31 -8t8 -31v-237q0 -23 -8.5 -31t-30.5 -8h-551q-94 0 -209 -8q-25 -2 -34 4t-13 31z" />
<glyph unicode="&#xa5;" horiz-adv-x="1071" d="M35 920v88q0 23 8 31t31 8h391q23 0 31 -8.5t8 -30.5v-88q0 -23 -8.5 -30t-30.5 -7h-86l190 -260l193 260h-86q-23 0 -31 7t-8 30v88q0 23 8 31t31 8h309q23 0 31 -8.5t8 -30.5v-88q0 -23 -8 -30t-31 -7h-65l-246 -328h168q23 0 31 -8t8 -31v-27q0 -23 -8.5 -30.5 t-30.5 -7.5h-213v-91h213q23 0 31 -8t8 -30v-27q0 -23 -8.5 -31t-30.5 -8h-213v-94h67q23 2 31 -6.5t8 -30.5v-86q0 -23 -8 -31t-31 -8h-321q-23 0 -31 8t-8 31v86q0 23 8 31t31 6h65v94h-213q-23 0 -31 8t-8 31v27q0 23 8.5 30.5t30.5 7.5h213v91h-213q-23 0 -31 8t-8 30 v27q0 23 8.5 31t30.5 8h168l-250 328h-71q-23 0 -31 7t-8 30z" />
<glyph unicode="&#xa8;" d="M131 1346q0 57 35 89.5t92 32.5q127 0 127 -122q0 -59 -36 -93t-91 -34q-57 0 -92 33.5t-35 93.5zM547 1346q0 57 34.5 89.5t92.5 32.5q127 0 127 -122q0 -59 -36 -93t-91 -34q-57 0 -92 33.5t-35 93.5z" />
<glyph unicode="&#xa9;" horiz-adv-x="1802" d="M160 694q0 313 206 519t525 206q330 0 540.5 -203.5t210.5 -508.5q0 -322 -208.5 -527t-542.5 -205q-336 0 -533.5 201t-197.5 518zM248 694q0 -289 180 -469t461 -180q295 0 480 176t185 473q0 289 -188 471.5t-477 182.5q-291 0 -466 -180.5t-175 -473.5zM545 702.5 q0 178.5 93 295t284 116.5q129 0 195.5 -65.5t70.5 -174.5q0 -23 -8.5 -30.5t-30.5 -7.5h-47q-23 0 -31 8t-12 30q-14 109 -139 109q-197 0 -197 -274q0 -135 41 -206t143 -71q70 0 107 23.5t45 85.5q4 23 12 31t31 8h47q23 0 31 -8.5t6 -30.5q-4 -109 -77 -174.5 t-214 -65.5q-182 0 -266 111.5t-84 290z" />
<glyph unicode="&#xab;" horiz-adv-x="1009" d="M150 553q-14 35 2 70l180 350q16 35 57 35h119q39 0 22 -35l-194 -383l188 -383q16 -35 -22 -35h-123q-41 0 -55 35zM489 553q-14 35 3 70l180 350q16 35 57 35h119q39 0 22 -35l-194 -383l188 -383q16 -35 -22 -35h-123q-41 0 -55 35z" />
<glyph unicode="&#xad;" horiz-adv-x="577" d="M61 485v121q0 23 8.5 31t30.5 8h377q23 0 31 -8t8 -31v-121q0 -23 -8 -31t-31 -8h-377q-23 0 -31 8.5t-8 30.5z" />
<glyph unicode="&#xae;" horiz-adv-x="1019" d="M133 1157q0 158 103.5 260.5t263.5 102.5q164 0 270.5 -101.5t106.5 -253.5q0 -162 -104.5 -264t-272.5 -102t-267.5 100t-99.5 258zM190 1157q0 -139 87.5 -225t222.5 -86q141 0 230 84t89 227q0 139 -90 227.5t-229 88.5q-141 0 -225.5 -86.5t-84.5 -229.5zM342 999v15 q0 14 14 14h25v275h-23q-16 0 -16 16v22q0 16 18 17h146q129 0 129 -98q0 -68 -70 -97l70 -135h37q16 0 16 -14v-15q0 -14 -16 -14h-80q-16 0 -21 12l-73 150h-47v-119h24q16 0 17 -18v-9q-1 -16 -17 -16h-117q-16 0 -16 14zM451 1196h32q78 0 78 59q0 48 -76 48h-34v-107z " />
<glyph unicode="&#xb4;" d="M340 1196.5q-6 8.5 2 28.5l86 237q8 23 17.5 30t33.5 7h148q23 0 26.5 -7t-6.5 -28l-133 -241q-10 -20 -21.5 -27.5t-35.5 -7.5h-88q-23 0 -29 8.5z" />
<glyph unicode="&#xb8;" d="M387 -410q-18 23 2 41q84 74 84 115t-45 76l-18 14q-22 18 -7 43l89 127h86l-46 -72l33 -28q78 -68 78 -127q0 -84 -197 -215q-25 -16 -43 6z" />
<glyph unicode="&#xbb;" horiz-adv-x="1009" d="M135 179q-4 7 6 28l195 385l-191 381q-16 35 23 35h123q41 0 55 -35l174 -346q14 -35 -2 -70l-180 -350q-10 -20 -21 -27.5t-36 -7.5h-119q-23 0 -27 7zM475 179q-4 7 6 28l195 385l-191 381q-16 35 23 35h123q41 0 55 -35l174 -346q14 -35 -2 -70l-180 -350 q-10 -20 -21 -27.5t-36 -7.5h-119q-23 0 -27 7z" />
<glyph unicode="&#xc1;" horiz-adv-x="1425" d="M0 31v100q0 31 31 31h121l409 1200q12 29 41 29h199q29 0 41 -29l413 -1200h140q31 0 30 -31v-100q0 -31 -30 -31h-514q-31 0 -31 31v100q0 31 31 31h127l-97 276h-473l-94 -276h123q31 0 31 -31v-100q0 -31 -31 -31h-436q-31 0 -31 31zM479 592h387l-192 602zM639 1528 l92 201q12 29 43 28h160q31 0 12 -24l-143 -209q-16 -25 -47 -25h-99q-30 0 -18 29z" />
<glyph unicode="&#xc4;" horiz-adv-x="1425" d="M0 31v100q0 31 31 31h121l409 1200q12 29 41 29h199q29 0 41 -29l413 -1200h140q31 0 30 -31v-100q0 -31 -30 -31h-514q-31 0 -31 31v100q0 31 31 31h127l-97 276h-473l-94 -276h123q31 0 31 -31v-100q0 -31 -31 -31h-436q-31 0 -31 31zM377 1638q0 57 34.5 90t92.5 33 q127 0 127 -123q0 -59 -36 -93t-91 -34q-57 0 -92 34t-35 93zM479 592h387l-192 602zM793 1638q0 57 34.5 90t92.5 33q127 0 127 -123q0 -59 -36 -93t-91 -34q-57 0 -92 34t-35 93z" />
<glyph unicode="&#xc9;" horiz-adv-x="1136" d="M82 31v100q0 31 31 31h108v1063h-108q-31 0 -31 30v105q0 31 31 31h901q31 0 30 -31v-275q0 -31 -30 -30h-115q-31 0 -29 30l9 142h-428v-436h305l-8 104q-2 31 28 31h115q31 0 31 -31v-363q0 -31 -31 -30h-115q-31 0 -28 30l6 99h-303v-471h469l-9 145q-2 31 29 31h115 q31 0 30 -31v-274q0 -31 -30 -31h-942q-31 0 -31 31zM555 1528l92 201q12 29 43 28h160q31 0 12 -24l-143 -209q-14 -25 -47 -25h-99q-30 0 -18 29z" />
<glyph unicode="&#xcd;" horiz-adv-x="671" d="M82 31v100q0 31 31 31h108v1063h-108q-31 0 -31 30v105q0 31 31 31h446q31 0 31 -31v-105q0 -31 -31 -30h-108v-1063h108q31 0 31 -31v-100q0 -31 -31 -31h-446q-31 0 -31 31zM238 1528l92 201q12 29 43 28h159q31 0 13 -24l-144 -209q-16 -25 -47 -25h-98q-30 0 -18 29z " />
<glyph unicode="&#xd3;" horiz-adv-x="1417" d="M88 682q0 205 61.5 357.5t161 232.5t202.5 116.5t212 36.5q76 0 145.5 -12t157.5 -54t150.5 -112.5t106.5 -202t44 -305.5q0 -369 -181 -566.5t-466 -197.5q-283 0 -438.5 180.5t-155.5 526.5zM334 754q0 -586 373 -586q367 0 366 532q0 545 -373 545q-131 0 -216 -70.5 t-117.5 -176t-32.5 -244.5zM645 1528l92 201q12 29 43 28h160q31 0 12 -24l-143 -209q-14 -25 -47 -25h-98q-31 0 -19 29z" />
<glyph unicode="&#xd4;" horiz-adv-x="1417" d="M88 682q0 205 61.5 357.5t161 232.5t202.5 116.5t212 36.5q76 0 145.5 -12t157.5 -54t150.5 -112.5t106.5 -202t44 -305.5q0 -369 -181 -566.5t-466 -197.5q-283 0 -438.5 180.5t-155.5 526.5zM334 754q0 -586 373 -586q367 0 366 532q0 545 -373 545q-131 0 -216 -70.5 t-117.5 -176t-32.5 -244.5zM434 1524l168 219q18 25 49 24h156q31 0 49 -24l168 -219q18 -25 -12 -25h-117q-33 0 -51 25l-119 145l-117 -145q-18 -25 -49 -25h-113q-31 0 -12 25z" />
<glyph unicode="&#xda;" horiz-adv-x="1460" d="M51 1255v105q0 31 31 31h446q31 0 31 -31v-105q0 -31 -31 -30h-108v-643q0 -102 10 -169t41 -130.5t96.5 -93t169.5 -29.5q184 0 260 106.5t76 308.5v650h-108q-31 0 -31 30v105q0 31 31 31h413q31 0 31 -31v-105q0 -31 -31 -30h-108v-693q0 -113 -24.5 -204.5 t-82 -174.5t-167 -130.5t-265.5 -47.5q-303 0 -422 132.5t-119 402.5v715h-108q-31 0 -31 30zM690 1528l92 201q12 29 43 28h160q31 0 12 -24l-143 -209q-14 -25 -47 -25h-98q-31 0 -19 29z" />
<glyph unicode="&#xdd;" horiz-adv-x="1359" d="M20 1255v105q0 31 31 31h520q31 0 31 -31v-105q0 -31 -31 -30h-145l295 -504l293 504h-137q-31 0 -31 30v105q0 31 31 31h432q31 0 30 -31v-105q0 -31 -30 -30h-109l-399 -672v-393h108q31 0 31 -31v-98q0 -31 -31 -31h-446q-31 0 -31 31v98q0 31 31 31h108v366l-413 699 h-107q-31 0 -31 30zM643 1528l92 201q12 29 43 28h160q31 0 12 -24l-143 -209q-16 -25 -47 -25h-98q-31 0 -19 29z" />
<glyph unicode="&#xe1;" horiz-adv-x="1073" d="M72 264q0 70 22.5 124t54 89t88 60.5t101.5 38t115.5 20.5t110.5 9t108 3v72q0 43 -5 73.5t-22.5 61.5t-55.5 47.5t-95 16.5q-90 0 -130 -34t-55 -97q-6 -31 -30 -31h-132q-33 0 -28 31q8 150 120.5 219t286.5 69q367 0 367 -336v-538h88q31 0 31 -31v-100q0 -31 -31 -31 h-242q-27 0 -30 31l-15 94q-111 -150 -319 -150q-131 0 -217 69t-86 220zM289 285q0 -141 162 -142q106 0 165.5 50t59.5 116v158q-59 0 -88 -1t-84 -6t-85 -17.5t-65 -31t-50 -51t-15 -75.5zM442 1196.5q-6 8.5 2 28.5l86 237q8 23 17.5 30t34.5 7h147q23 0 27 -7t-6 -28 l-134 -241q-10 -20 -21 -27.5t-36 -7.5h-88q-23 0 -29 8.5z" />
<glyph unicode="&#xe4;" horiz-adv-x="1073" d="M72 264q0 70 22.5 124t54 89t88 60.5t101.5 38t115.5 20.5t110.5 9t108 3v72q0 43 -5 73.5t-22.5 61.5t-55.5 47.5t-95 16.5q-90 0 -130 -34t-55 -97q-6 -31 -30 -31h-132q-33 0 -28 31q8 150 120.5 219t286.5 69q367 0 367 -336v-538h88q31 0 31 -31v-100q0 -31 -31 -31 h-242q-27 0 -30 31l-15 94q-111 -150 -319 -150q-131 0 -217 69t-86 220zM289 285q0 -141 162 -142q106 0 165.5 50t59.5 116v158q-59 0 -88 -1t-84 -6t-85 -17.5t-65 -31t-50 -51t-15 -75.5zM168 1346q0 57 35 89.5t92 32.5q127 0 127 -122q0 -59 -36 -93t-91 -34 q-57 0 -92 33.5t-35 93.5zM584 1346q0 57 34.5 89.5t92.5 32.5q127 0 127 -122q0 -59 -36 -93t-91 -34q-57 0 -92 33.5t-35 93.5z" />
<glyph unicode="&#xe9;" horiz-adv-x="1001" d="M72 508q0 221 120.5 374.5t348.5 153.5q113 0 193.5 -42t123.5 -114.5t62.5 -151.5t19.5 -169q0 -45 -2 -70q-2 -20 -8 -26t-29 -6h-602q10 -147 72.5 -228.5t216.5 -81.5q113 0 231 54q29 14 41 -17l39 -94q10 -25 -18 -41q-135 -74 -338 -74q-244 0 -357.5 142.5 t-113.5 390.5zM299 608h426q4 256 -201 256q-121 0 -171 -77t-54 -179zM477 1196.5q-6 8.5 2 28.5l86 237q8 23 17.5 30t33.5 7h148q23 0 27 -7t-7 -28l-133 -241q-16 -35 -57 -35h-88q-23 0 -29 8.5z" />
<glyph unicode="&#xed;" horiz-adv-x="602" d="M33 31v100q0 31 30 31h130v684h-111q-31 0 -31 31v106q0 31 31 31h309q31 0 31 -31v-821h129q31 0 31 -31v-100q0 -31 -31 -31h-488q-31 0 -30 31zM204.5 1196.5q-5.5 8.5 2.5 28.5l86 237q8 23 17 30t34 7h148q23 0 26.5 -7t-6.5 -28l-133 -241q-10 -20 -21.5 -27.5 t-35.5 -7.5h-89q-23 0 -28.5 8.5z" />
<glyph unicode="&#xf3;" horiz-adv-x="1089" d="M72 492q0 154 47 266t123.5 169.5t154.5 83t160 25.5q57 0 109.5 -8t120 -39t115.5 -82t82 -147t34 -225q0 -274 -138.5 -417t-355.5 -143q-213 0 -332.5 130.5t-119.5 386.5zM303 537q0 -394 240 -394q123 0 179 91.5t56 271.5t-56 271t-183 91q-236 0 -236 -331z M489.5 1196.5q-5.5 8.5 2.5 28.5l86 237q8 23 17 30t34 7h147q23 0 27 -7t-6 -28l-133 -241q-16 -35 -58 -35h-88q-23 0 -28.5 8.5z" />
<glyph unicode="&#xf4;" horiz-adv-x="1089" d="M72 492q0 154 47 266t123.5 169.5t154.5 83t160 25.5q57 0 109.5 -8t120 -39t115.5 -82t82 -147t34 -225q0 -274 -138.5 -417t-355.5 -143q-213 0 -332.5 130.5t-119.5 386.5zM303 537q0 -394 240 -394q123 0 179 91.5t56 271.5t-56 271t-183 91q-236 0 -236 -331z M252 1214l172 277q18 27 47 27h156q29 0 47 -27l172 -277q18 -27 -14 -26h-121q-31 0 -47 24l-119 174l-111 -172q-18 -26 -47 -26h-121q-33 0 -14 26z" />
<glyph unicode="&#xfa;" horiz-adv-x="1226" d="M41 877v106q0 31 31 31h307q31 0 31 -31v-598q0 -123 31.5 -175t144.5 -52q94 0 161.5 61.5t67.5 138.5v488h-129q-31 0 -31 31v106q0 31 31 31h328q31 0 30 -31v-821h91q31 0 30 -31v-100q0 -31 -30 -31h-230q-25 0 -31 31l-18 114q-131 -170 -344 -170q-332 0 -332 349 v522h-108q-31 0 -31 31zM506 1196.5q-6 8.5 2 28.5l86 237q8 23 17.5 30t33.5 7h148q23 0 26.5 -7t-6.5 -28l-133 -241q-16 -35 -57 -35h-88q-23 0 -29 8.5z" />
<glyph unicode="&#xfd;" horiz-adv-x="1062" d="M-8 -408l35 101q8 27 39 18q98 -33 161 -33q61 0 95 32t71 132l51 135l-311 869h-102q-31 0 -31 31v106q0 31 31 31h268q31 0 39 -29l240 -745l213 606h-105q-31 0 -31 31v106q0 31 31 31h299q25 0 36 -20q6 -10 6 -21q0 -10 -5 -21l-438 -1145q-31 -78 -52.5 -119.5 t-61.5 -90t-97.5 -69t-139.5 -20.5q-133 0 -227 46q-17 9 -17 24q0 7 3 14zM512 1196.5q-6 8.5 2 28.5l86 237q8 23 17.5 30t33.5 7h148q23 0 26.5 -7t-6.5 -28l-133 -241q-10 -20 -21.5 -27.5t-35.5 -7.5h-88q-23 0 -29 8.5z" />
<glyph unicode="&#x10c;" horiz-adv-x="1288" d="M88 688q0 197 58.5 346.5t154.5 231.5t203.5 120.5t224.5 38.5q238 0 428 -104q27 -14 27 -41v-264q0 -31 -31 -31h-115q-31 0 -28 31l6 143q-127 86 -289 86q-393 0 -393 -524q0 -164 39 -286t137 -201.5t252 -79.5q174 0 256 65l-8 143q-2 31 28 31h117q31 0 31 -31 v-260q0 -29 -21 -39q-180 -88 -411 -88q-336 0 -501 190.5t-165 522.5zM444 1743q-18 25 13 24h116q33 0 52 -24l118 -146l117 146q18 24 49 24h113q31 0 12 -24l-168 -219q-18 -25 -49 -25h-155q-31 0 -50 25z" />
<glyph unicode="&#x10d;" horiz-adv-x="958" d="M72 502q0 236 121.5 385t363.5 149q184 0 272.5 -100t88.5 -256q0 -27 -35 -27h-123q-33 0 -35 31q-10 180 -182 180q-123 0 -180.5 -85t-57.5 -259q0 -373 289 -373q92 0 215 56q31 12 43 -19l37 -90q10 -29 -17 -43q-125 -76 -315 -76q-248 0 -366.5 140.5 t-118.5 386.5zM264 1491q-18 27 14 27h121q31 0 47 -25l119 -174l111 172q18 27 47 27h121q33 0 14 -27l-172 -277q-18 -27 -47 -26h-156q-29 0 -47 26z" />
<glyph unicode="&#x10e;" horiz-adv-x="1390" d="M82 31v100q0 31 31 31h106v1063h-106q-31 0 -31 30v105q0 31 31 31q262 12 442 12q74 0 136.5 -5t142 -21.5t142 -44t126 -79t105.5 -120t69 -171t27 -229.5q0 -371 -205 -552t-559 -181h-426q-31 0 -31 31zM291 1743q-18 25 12 24h117q33 0 51 -24l119 -146l117 146 q18 24 49 24h112q31 0 13 -24l-168 -219q-18 -25 -49 -25h-156q-31 0 -49 25zM449 160h135q225 0 349 147t124 389q0 270 -116 403.5t-361 133.5h-131v-1073z" />
<glyph unicode="&#x10f;" horiz-adv-x="1247" d="M72 477q0 281 126 420t324 139q90 0 160 -33.5t102 -80.5v436h-108q-31 0 -31 31v108q0 31 31 31h307q31 0 31 -31v-1335h88q31 0 31 -31v-100q0 -31 -31 -31h-232q-27 0 -30 31l-17 121q-104 -176 -334 -177q-201 0 -309 126t-108 376zM303 512q0 -78 8 -134t32 -111.5 t74 -84t128 -28.5q94 0 166.5 63.5t72.5 167.5v360q-8 12 -25.5 31t-75.5 49.5t-126 30.5q-254 0 -254 -344zM1149 1108q0 -31 31 -31h71q31 0 37 31l66 389q2 31 -27 31h-147q-31 0 -31 -31v-389z" />
<glyph unicode="&#x139;" horiz-adv-x="1075" d="M82 31v100q0 31 31 31h108v1063h-108q-31 0 -31 30v105q0 31 31 31h487q31 0 31 -31v-105q0 -31 -31 -30h-149v-1063h428l-9 143q-2 31 29 31h115q31 0 30 -31v-403q0 -31 -30 -31h-115q-31 0 -29 31l7 98h-764q-31 0 -31 31zM246 1528l92 201q12 29 43 28h160 q31 0 12 -24l-143 -209q-16 -25 -48 -25h-98q-30 0 -18 29z" />
<glyph unicode="&#x13a;" horiz-adv-x="602" d="M33 31v100q0 31 30 31h130v1198h-111q-31 0 -31 31v106q0 31 31 31h309q31 0 31 -31v-1335h129q31 0 31 -31v-100q0 -31 -31 -31h-488q-31 0 -30 31zM211 1626l92 201q12 29 43 28h160q31 0 12 -24l-143 -209q-14 -25 -47 -25h-99q-30 0 -18 29z" />
<glyph unicode="&#x13d;" horiz-adv-x="1075" d="M82 31v100q0 31 31 31h108v1063h-108q-31 0 -31 30v105q0 31 31 31h487q31 0 31 -31v-105q0 -31 -31 -30h-149v-1063h428l-9 143q-2 31 29 31h115q31 0 30 -31v-403q0 -31 -30 -31h-115q-31 0 -29 31l7 98h-764q-31 0 -31 31zM760 971q0 -31 31 -31h71q31 0 37 31l66 389 q2 31 -27 31h-147q-31 0 -31 -31v-389z" />
<glyph unicode="&#x13e;" horiz-adv-x="647" d="M33 31v100q0 31 30 31h130v1198h-111q-31 0 -31 31v106q0 31 31 31h309q31 0 31 -31v-1335h129q31 0 31 -31v-100q0 -31 -31 -31h-488q-31 0 -30 31zM549 1108q0 -31 31 -31h71q31 0 37 31l66 389q2 31 -27 31h-147q-31 0 -31 -31v-389z" />
<glyph unicode="&#x147;" horiz-adv-x="1521" d="M82 31v100q0 31 31 31h108v1063h-108q-31 0 -31 30v105q0 31 31 31h301q29 0 47 -27l682 -1036v897h-109q-31 0 -30 30v105q0 31 30 31h396q31 0 30 -31v-105q0 -31 -30 -30h-109v-1194q0 -31 -31 -31h-149q-31 0 -47 25l-695 1026v-889h170q31 0 31 -31v-100 q0 -31 -31 -31h-456q-31 0 -31 31zM485 1743q-18 25 13 24h116q33 0 52 -24l118 -146l117 146q18 24 49 24h113q31 0 12 -24l-168 -219q-18 -25 -49 -25h-156q-31 0 -49 25z" />
<glyph unicode="&#x148;" horiz-adv-x="1236" d="M51 874v109q0 31 31 31h278q27 0 33 -31l19 -119q115 172 327 172q317 0 318 -348v-526h119q31 0 30 -31v-100q0 -31 -30 -31h-447q-31 0 -31 31v100q0 31 31 31h98v424q0 129 -32.5 188.5t-143.5 59.5q-94 0 -161.5 -61.5t-67.5 -139.5v-471h127q31 0 31 -31v-100 q0 -31 -31 -31h-465q-31 0 -31 31v100q0 31 31 31h109v684h-111q-31 -1 -31 28zM352 1491q-18 27 14 27h121q31 0 47 -25l119 -174l111 172q18 27 47 27h121q33 0 14 -27l-172 -277q-18 -27 -47 -26h-156q-29 0 -47 26z" />
<glyph unicode="&#x154;" horiz-adv-x="1261" d="M82 31v100q0 31 31 31h106v1065h-106q-31 0 -31 30v103q0 31 31 31q262 12 436 12q532 0 532 -381q0 -133 -67.5 -234.5t-179.5 -154.5l239 -471h127q31 0 31 -31v-100q0 -31 -31 -31h-270q-31 0 -45 27l-279 551h-41q-66 0 -116 6v-422h129q31 0 30 -31v-100 q0 -31 -30 -31h-465q-31 0 -31 31zM434 1528l92 201q12 29 43 28h160q31 0 12 -24l-143 -209q-16 -25 -47 -25h-98q-31 0 -19 29zM449 739q16 -2 47 -2q166 0 258 65.5t92 196.5q0 233 -324 234h-73v-494z" />
<glyph unicode="&#x155;" horiz-adv-x="923" d="M51 877v106q0 31 31 31h270q29 0 35 -31l23 -145q35 82 112.5 140t179.5 58q82 0 132 -16q25 -8 24 -37v-276q0 -31 -31 -31h-133q-31 0 -28 31l8 118q-10 2 -35 2q-94 0 -155.5 -76.5t-61.5 -205.5v-383h225q31 0 31 -31v-100q0 -31 -31 -31h-563q-31 0 -31 31v100 q0 31 31 31h109v684h-111q-31 0 -31 31zM401 1196.5q-6 8.5 2 28.5l86 237q8 23 17.5 30t33.5 7h148q23 0 26.5 -7t-6.5 -28l-133 -241q-10 -20 -21.5 -27.5t-35.5 -7.5h-88q-23 0 -29 8.5z" />
<glyph unicode="&#x160;" horiz-adv-x="1058" d="M113 66v325q0 31 30 31h115q31 0 29 -31l-8 -170q27 -25 89 -46t128 -21q254 0 254 206q0 100 -68 159t-203 104q-80 27 -135 54.5t-112.5 71.5t-86 110.5t-28.5 152.5q0 180 123 296.5t340 116.5q152 0 303 -45q29 -8 28 -37v-282q0 -31 -30 -31h-115q-31 0 -29 31 l6 137q-82 49 -184 49q-98 0 -158.5 -48t-60.5 -132q0 -88 55.5 -142.5t184.5 -103.5q76 -29 110.5 -43t101 -53t98.5 -77t59.5 -101.5t27.5 -140.5q0 -203 -128 -317t-364 -114q-174 0 -344 54q-29 8 -28 37zM262 1743q-18 25 12 24h117q33 0 51 -24l119 -146l117 146 q18 24 49 24h113q31 0 12 -24l-168 -219q-18 -25 -49 -25h-156q-31 0 -49 25z" />
<glyph unicode="&#x161;" horiz-adv-x="882" d="M82 55v217q0 31 31 31h118q31 0 29 -31l-6 -106q55 -41 158 -41q182 0 182 129q0 66 -52.5 103.5t-127 58t-150.5 46t-128 90t-52 169.5q0 135 104.5 225t286.5 90q137 0 254 -37q29 -8 29 -36v-218q0 -31 -31 -30h-119q-33 0 -26 30l10 105q-61 33 -135 33 q-164 0 -164 -115q0 -51 38 -84t96 -49.5t124.5 -40t125 -52t96.5 -89t38 -148.5q0 -156 -108.5 -243t-305.5 -87q-137 0 -288 41q-27 8 -27 39zM164 1491q-18 27 14 27h121q33 0 47 -25l119 -174l110 172q19 27 48 27h120q33 0 15 -27l-172 -277q-18 -27 -47 -26h-156 q-29 0 -47 26z" />
<glyph unicode="&#x164;" horiz-adv-x="1214" d="M41 1067v293q0 31 31 31h1071q31 0 31 -31v-293q0 -31 -31 -31h-125q-31 0 -29 31l10 160h-276v-1065h170q31 0 31 -31v-100q0 -31 -31 -31h-569q-31 0 -31 31v100q0 31 31 31h168v1065h-277l10 -160q2 -31 -28 -31h-125q-31 0 -31 31zM311 1743q-18 25 13 24h116 q33 0 52 -24l118 -146l117 146q18 24 49 24h113q31 0 12 -24l-168 -219q-18 -25 -49 -25h-156q-31 0 -49 25z" />
<glyph unicode="&#x165;" horiz-adv-x="755" d="M31 877v106q0 31 30 31h117v276q0 31 31 31h168q31 0 31 -31v-276h206q31 0 31 -31v-106q0 -31 -31 -31h-206v-516q0 -96 24.5 -139.5t97.5 -43.5q59 0 125 29q23 8 33 -16l37 -94q10 -25 -18 -41q-98 -49 -234 -50q-61 0 -109.5 12.5t-79 30t-52 51t-32 59.5t-15.5 73 t-6 73.5t-1 77.5v494h-117q-31 0 -30 31zM555 1145v389q0 31 31 31h147q29 0 27 -31l-66 -389q-6 -31 -37 -31h-71q-31 0 -31 31z" />
<glyph unicode="&#x17d;" horiz-adv-x="1204" d="M63 31v98q0 31 19 55l762 1047h-572l11 -164q2 -31 -29 -31h-125q-31 0 -31 31v293q0 31 31 31h967q31 0 30 -31v-98q0 -31 -18 -56l-770 -1046h627l-13 145q-2 31 29 31h121q31 0 31 -31v-403q0 -31 -31 -31h-115q-31 0 -29 31l7 98h-871q-31 0 -31 31zM307 1743 q-18 25 12 24h117q33 0 51 -24l119 -146l117 146q18 24 49 24h113q31 0 12 -24l-168 -219q-18 -25 -49 -25h-156q-31 0 -49 25z" />
<glyph unicode="&#x17e;" horiz-adv-x="925" d="M72 31v119q0 31 18 55l510 645h-340l4 -109q2 -31 -28 -30h-113q-31 0 -31 30v242q0 31 31 31h702q31 0 31 -31v-115q0 -31 -18 -55l-523 -653h379l-4 129q-2 31 29 30h115q30 1 30 -30l-2 -258q0 -31 -31 -31h-729q-31 0 -30 31zM178 1491q-18 27 14 27h121q31 0 47 -25 l119 -174l111 172q18 27 47 27h121q33 0 14 -27l-172 -277q-18 -27 -47 -26h-156q-29 0 -47 26z" />
<glyph unicode="&#x2c6;" d="M219 1214l172 277q18 27 47 27h156q29 0 47 -27l172 -277q18 -27 -14 -26h-121q-31 0 -47 24l-119 174l-111 -172q-18 -26 -47 -26h-121q-33 0 -14 26z" />
<glyph unicode="&#x2c7;" d="M219 1491q-18 27 14 27h121q31 0 47 -25l119 -174l111 172q18 27 47 27h121q33 0 14 -27l-172 -277q-18 -27 -47 -26h-156q-29 0 -47 26z" />
<glyph unicode="&#x2da;" d="M307 1364q0 86 58.5 145.5t146.5 59.5q92 0 147.5 -57.5t55.5 -137.5q0 -94 -57.5 -155.5t-149.5 -61.5q-94 0 -147.5 59.5t-53.5 147.5zM426 1364q0 -43 22.5 -71.5t63.5 -28.5t64.5 28.5t23.5 71.5q0 45 -23.5 71.5t-64.5 26.5q-86 0 -86 -98z" />
<glyph unicode="&#x2dc;" d="M164 1266q0 109 45 150.5t104 41.5q55 0 190.5 -42t182.5 -42q70 0 70 56q0 27 30 26h50q25 0 24 -29q0 -102 -44 -152t-111 -50q-66 0 -201 39t-166 39q-61 0 -62 -46q0 -14 -4 -17t-20 -3h-64q-25 0 -24 29z" />
<glyph unicode="&#x2000;" horiz-adv-x="927" />
<glyph unicode="&#x2001;" horiz-adv-x="1855" />
<glyph unicode="&#x2002;" horiz-adv-x="927" />
<glyph unicode="&#x2003;" horiz-adv-x="1855" />
<glyph unicode="&#x2004;" horiz-adv-x="618" />
<glyph unicode="&#x2005;" horiz-adv-x="463" />
<glyph unicode="&#x2006;" horiz-adv-x="309" />
<glyph unicode="&#x2007;" horiz-adv-x="309" />
<glyph unicode="&#x2008;" horiz-adv-x="231" />
<glyph unicode="&#x2009;" horiz-adv-x="371" />
<glyph unicode="&#x200a;" horiz-adv-x="103" />
<glyph unicode="&#x2010;" horiz-adv-x="577" d="M61 485v121q0 23 8.5 31t30.5 8h377q23 0 31 -8t8 -31v-121q0 -23 -8 -31t-31 -8h-377q-23 0 -31 8.5t-8 30.5z" />
<glyph unicode="&#x2011;" horiz-adv-x="577" d="M61 485v121q0 23 8.5 31t30.5 8h377q23 0 31 -8t8 -31v-121q0 -23 -8 -31t-31 -8h-377q-23 0 -31 8.5t-8 30.5z" />
<glyph unicode="&#x2012;" horiz-adv-x="577" d="M61 485v121q0 23 8.5 31t30.5 8h377q23 0 31 -8t8 -31v-121q0 -23 -8 -31t-31 -8h-377q-23 0 -31 8.5t-8 30.5z" />
<glyph unicode="&#x2013;" d="M0 547v80q0 23 8 31t31 8h946q23 0 31 -8.5t8 -30.5v-80q0 -23 -8 -31t-31 -8h-946q-23 0 -31 8t-8 31z" />
<glyph unicode="&#x2014;" horiz-adv-x="2045" d="M0 547v80q0 23 8 31t31 8h1968q23 0 31 -8.5t8 -30.5v-80q0 -23 -8 -31t-31 -8h-1968q-23 0 -31 8t-8 31z" />
<glyph unicode="&#x2018;" horiz-adv-x="520" d="M135 1155q0 35 12.5 73t24.5 60.5t43 71.5l90 151q18 31 53 17h2q23 -10 27 -18.5t-4 -30.5l-59 -185q63 -84 63 -143q0 -49 -34 -82t-89 -33t-92 33t-37 86z" />
<glyph unicode="&#x2019;" horiz-adv-x="520" d="M149 1069q-4 8 5 31l59 184q-63 84 -63 143q0 49 33.5 82t89 33t92 -32.5t36.5 -86.5q0 -35 -12 -72.5t-24 -60t-43 -71.5l-91 -152q-18 -31 -53 -16h-2q-23 10 -27 18z" />
<glyph unicode="&#x201a;" horiz-adv-x="520" d="M149 -284.5q-4 8.5 5 30.5l59 184q-63 84 -63 144q0 49 33.5 81.5t89 32.5t92 -32.5t36.5 -85.5q0 -35 -12 -73t-24 -60.5t-43 -71.5l-91 -152q-18 -31 -53 -16h-2q-23 10 -27 18.5z" />
<glyph unicode="&#x201c;" horiz-adv-x="827" d="M135 1155q0 35 12.5 73t24.5 60.5t43 71.5l90 151q18 31 53 17h2q23 -10 27 -18.5t-4 -30.5l-59 -185q63 -84 63 -143q0 -49 -34 -82t-89 -33t-92 33t-37 86zM442 1155q0 35 12.5 73t24.5 60.5t43 71.5l90 151q18 31 54 17h2q23 -10 26.5 -18.5t-4.5 -30.5l-59 -185 q63 -84 63 -143q0 -49 -33.5 -82t-89 -33t-92.5 33t-37 86z" />
<glyph unicode="&#x201d;" horiz-adv-x="827" d="M149 1069q-4 8 5 31l59 184q-63 84 -63 143q0 49 33.5 82t89 33t92 -32.5t36.5 -86.5q0 -35 -12 -72.5t-24 -60t-43 -71.5l-91 -152q-18 -31 -53 -16h-2q-23 10 -27 18zM456.5 1069q-3.5 8 4.5 31l59 184q-63 84 -63 143q0 49 33.5 82t89 33t92.5 -32.5t37 -86.5 q0 -35 -12.5 -72.5t-24.5 -60t-43 -71.5l-90 -152q-18 -31 -54 -16h-2q-23 10 -26.5 18z" />
<glyph unicode="&#x201e;" horiz-adv-x="806" d="M149 -284.5q-4 8.5 5 30.5l59 184q-63 84 -63 144q0 49 33.5 81.5t89 32.5t92 -32.5t36.5 -85.5q0 -35 -12 -73t-24 -60.5t-43 -71.5l-91 -152q-18 -31 -53 -16h-2q-23 10 -27 18.5zM456.5 -284.5q-3.5 8.5 4.5 30.5l59 184q-63 84 -63 144q0 49 33.5 81.5t89 32.5 t92.5 -32.5t37 -85.5q0 -35 -12.5 -73t-24.5 -60.5t-43 -71.5l-90 -152q-18 -31 -54 -16h-2q-23 10 -26.5 18.5z" />
<glyph unicode="&#x2026;" horiz-adv-x="1583" d="M104 102q0 59 43 100.5t109 41.5q70 0 113 -39t43 -100.5t-41 -102.5t-113 -41t-113 40t-41 101zM610 102q0 59 43 100.5t109 41.5q70 0 113 -39t43 -100.5t-41 -102.5t-113 -41t-113 40t-41 101zM1133 102q0 59 43 100.5t108 41.5q70 0 113 -39t43 -100.5t-41 -102.5 t-113 -41t-112.5 40t-40.5 101z" />
<glyph unicode="&#x202f;" horiz-adv-x="371" />
<glyph unicode="&#x2039;" horiz-adv-x="669" d="M150 553q-14 35 2 70l180 350q16 35 57 35h119q39 0 22 -35l-194 -383l188 -383q16 -35 -22 -35h-123q-41 0 -55 35z" />
<glyph unicode="&#x203a;" horiz-adv-x="669" d="M135 179q-4 7 6 28l195 385l-191 381q-16 35 23 35h123q41 0 55 -35l174 -346q14 -35 -2 -70l-180 -350q-10 -20 -21 -27.5t-36 -7.5h-119q-23 0 -27 7z" />
<glyph unicode="&#x205f;" horiz-adv-x="463" />
<glyph unicode="&#x20ac;" horiz-adv-x="1079" d="M45 412l4 30q4 23 12.5 31t30.5 8h86q-2 39 0 80h-82q-23 0 -30 8t-3 31l5 31q2 25 11 32t34 7h75q25 147 106 245.5t175 135t203 36.5q188 0 317 -75q33 -18 33 -56v-180q0 -23 -8 -31t-31 -8h-88q-23 0 -31 8.5t-6 30.5l8 103q-74 66 -196 65q-129 0 -199 -75.5 t-82 -198.5h393q23 0 30 -7.5t3 -29.5l-6 -35q-2 -23 -11.5 -30t-33.5 -7h-379q-2 -43 2 -80h367q23 0 30 -8t2 -31l-4 -30q-2 -25 -11 -32t-34 -7h-338q51 -248 299 -248q104 0 168 39l-8 108q-2 23 5 31t30 8h92q23 0 31 -8t8 -31v-176q0 -39 -35 -55q-139 -66 -299 -66 q-436 0 -502 398h-108q-23 0 -30 8t-5 31z" />
<glyph unicode="&#x2122;" horiz-adv-x="1728" d="M143 1247v113q0 31 31 31h498q31 0 30 -31v-113q0 -31 -30 -30h-29q-31 0 -29 30l4 70h-131v-524h66q31 0 31 -31v-27q0 -30 -31 -30h-256q-31 0 -31 30v27q0 31 31 31h63v524h-129l5 -70q2 -31 -29 -30h-33q-31 0 -31 30zM752 735v25q0 31 30 31h37v514h-37 q-31 0 -30 30v25q0 31 30 31h154q33 0 41 -29l197 -520l202 520q8 29 41 29h137q31 0 31 -31v-25q0 -31 -31 -30h-34v-514h34q31 0 31 -31v-25q0 -31 -31 -30h-196q-31 0 -31 30v27q0 31 31 31h41v409l-180 -469q-8 -28 -41 -28h-41q-33 0 -41 28l-189 488v-428h58 q31 0 30 -31v-27q0 -31 -30 -30h-183q-31 0 -30 30z" />
<glyph unicode="&#xe000;" horiz-adv-x="1014" d="M0 1015h1015v-1015h-1015v1015z" />
</font>
</defs>
</svg>
